<?xml version="1.0" standalone="no"?>
<!DOCTYPE svg PUBLIC "-//W3C//DTD SVG 1.1//EN" "http://www.w3.org/Graphics/SVG/1.1/DTD/svg11.dtd" >
<svg xmlns="http://www.w3.org/2000/svg">
<defs>
  <font id="iconly" horiz-adv-x="1024">
    <font-face font-family="iconly"
      units-per-em="1024" ascent="896"
      descent="128" />
    <missing-glyph horiz-adv-x="0" />
    <glyph glyph-name="zoom-out"
      unicode="&#xE000;"
      horiz-adv-x="1024" d="M865.835 -30.165L709.205 126.465Q606.635 42.667 469.333 42.667Q310.273 42.667 197.8030000000001 155.1370000000001Q85.3330000000001 267.605 85.3330000000001 426.6670000000001Q85.3330000000001 585.7270000000001 197.8030000000001 698.197Q310.273 810.667 469.333 810.667Q628.395 810.667 740.863 698.197Q853.3330000000001 585.727 853.3330000000001 426.6670000000001Q853.3330000000001 289.365 769.5360000000001 186.7950000000001L926.166 30.1650000000001Q938.666 17.6650000000001 938.666 1e-13Q938.666 -17.6639999999999 926.166 -30.1649999999998Q913.6640000000002 -42.6669999999998 896 -42.6669999999998T865.835 -30.1649999999998zM768 426.667Q768 550.357 680.533 637.867Q593.067 725.333 469.333 725.333Q345.6430000000001 725.333 258.1330000000001 637.867Q170.667 550.357 170.667 426.667Q170.667 302.933 258.1330000000001 215.467Q345.643 128 469.333 128Q590.08 128 676.309 211.37Q678.0989999999999 213.632 680.2339999999999 215.765Q682.367 217.899 684.6279999999999 219.691Q768 305.92 768 426.668zM341.3330000000001 469.333H597.3330000000001Q614.9970000000001 469.333 627.4990000000001 456.833Q640 444.33 640 426.666T627.5 396.5Q614.996 384 597.332 384H341.332Q323.668 384 311.167 396.5Q298.667 409.003 298.667 426.6670000000001T311.167 456.8320000000001Q323.667 469.3320000000001 341.332 469.3320000000001z" />
    <glyph glyph-name="zoom-out-1"
      unicode="&#x7A;&#x6F;&#x6F;&#x6D;&#x5F;&#x6F;&#x75;&#x74;"
      horiz-adv-x="1024" d="M865.835 -30.165L709.205 126.465Q606.635 42.667 469.333 42.667Q310.273 42.667 197.8030000000001 155.1370000000001Q85.3330000000001 267.605 85.3330000000001 426.6670000000001Q85.3330000000001 585.7270000000001 197.8030000000001 698.197Q310.273 810.667 469.333 810.667Q628.395 810.667 740.863 698.197Q853.3330000000001 585.727 853.3330000000001 426.6670000000001Q853.3330000000001 289.365 769.5360000000001 186.7950000000001L926.166 30.1650000000001Q938.666 17.6650000000001 938.666 1e-13Q938.666 -17.6639999999999 926.166 -30.1649999999998Q913.6640000000002 -42.6669999999998 896 -42.6669999999998T865.835 -30.1649999999998zM768 426.667Q768 550.357 680.533 637.867Q593.067 725.333 469.333 725.333Q345.6430000000001 725.333 258.1330000000001 637.867Q170.667 550.357 170.667 426.667Q170.667 302.933 258.1330000000001 215.467Q345.643 128 469.333 128Q590.08 128 676.309 211.37Q678.0989999999999 213.632 680.2339999999999 215.765Q682.367 217.899 684.6279999999999 219.691Q768 305.92 768 426.668zM341.3330000000001 469.333H597.3330000000001Q614.9970000000001 469.333 627.4990000000001 456.833Q640 444.33 640 426.666T627.5 396.5Q614.996 384 597.332 384H341.332Q323.668 384 311.167 396.5Q298.667 409.003 298.667 426.6670000000001T311.167 456.8320000000001Q323.667 469.3320000000001 341.332 469.3320000000001z" />
    <glyph glyph-name="zoom-in"
      unicode="&#xE001;"
      horiz-adv-x="1024" d="M865.835 -30.165L709.205 126.465Q606.635 42.667 469.333 42.667Q310.273 42.667 197.8030000000001 155.1370000000001Q85.3330000000001 267.605 85.3330000000001 426.6670000000001Q85.3330000000001 585.7270000000001 197.8030000000001 698.197Q310.273 810.667 469.333 810.667Q628.395 810.667 740.863 698.197Q853.3330000000001 585.727 853.3330000000001 426.6670000000001Q853.3330000000001 289.365 769.5360000000001 186.7950000000001L926.166 30.1650000000001Q938.666 17.6650000000001 938.666 1e-13Q938.666 -17.6639999999999 926.166 -30.1649999999998Q913.6640000000002 -42.6669999999998 896 -42.6669999999998T865.835 -30.1649999999998zM768 426.667Q768 550.357 680.533 637.867Q593.067 725.333 469.333 725.333Q345.6430000000001 725.333 258.1330000000001 637.867Q170.667 550.357 170.667 426.667Q170.667 302.933 258.1330000000001 215.467Q345.643 128 469.333 128Q590.08 128 676.309 211.37Q678.0989999999999 213.632 680.2339999999999 215.765Q682.367 217.899 684.6279999999999 219.691Q768 305.92 768 426.668zM512 554.6669999999999V469.333H597.333Q614.997 469.333 627.499 456.833Q640 444.33 640 426.666T627.5 396.5Q614.996 384 597.332 384H512V298.6670000000001Q512 281.0030000000001 499.5 268.501Q486.997 256.001 469.333 256.001T439.168 268.501Q426.668 281.004 426.668 298.668V384H341.333Q323.669 384 311.168 396.5Q298.668 409.003 298.668 426.6670000000001T311.168 456.8320000000001Q323.668 469.3320000000001 341.333 469.3320000000001H426.667V554.667Q426.667 572.331 439.167 584.8320000000001Q451.669 597.3320000000001 469.333 597.3320000000001T499.499 584.8320000000001Q511.999 572.3320000000001 511.999 554.667z" />
    <glyph glyph-name="zoom-in-1"
      unicode="&#x7A;&#x6F;&#x6F;&#x6D;&#x5F;&#x69;&#x6E;"
      horiz-adv-x="1024" d="M865.835 -30.165L709.205 126.465Q606.635 42.667 469.333 42.667Q310.273 42.667 197.8030000000001 155.1370000000001Q85.3330000000001 267.605 85.3330000000001 426.6670000000001Q85.3330000000001 585.7270000000001 197.8030000000001 698.197Q310.273 810.667 469.333 810.667Q628.395 810.667 740.863 698.197Q853.3330000000001 585.727 853.3330000000001 426.6670000000001Q853.3330000000001 289.365 769.5360000000001 186.7950000000001L926.166 30.1650000000001Q938.666 17.6650000000001 938.666 1e-13Q938.666 -17.6639999999999 926.166 -30.1649999999998Q913.6640000000002 -42.6669999999998 896 -42.6669999999998T865.835 -30.1649999999998zM768 426.667Q768 550.357 680.533 637.867Q593.067 725.333 469.333 725.333Q345.6430000000001 725.333 258.1330000000001 637.867Q170.667 550.357 170.667 426.667Q170.667 302.933 258.1330000000001 215.467Q345.643 128 469.333 128Q590.08 128 676.309 211.37Q678.0989999999999 213.632 680.2339999999999 215.765Q682.367 217.899 684.6279999999999 219.691Q768 305.92 768 426.668zM512 554.6669999999999V469.333H597.333Q614.997 469.333 627.499 456.833Q640 444.33 640 426.666T627.5 396.5Q614.996 384 597.332 384H512V298.6670000000001Q512 281.0030000000001 499.5 268.501Q486.997 256.001 469.333 256.001T439.168 268.501Q426.668 281.004 426.668 298.668V384H341.333Q323.669 384 311.168 396.5Q298.668 409.003 298.668 426.6670000000001T311.168 456.8320000000001Q323.668 469.3320000000001 341.333 469.3320000000001H426.667V554.667Q426.667 572.331 439.167 584.8320000000001Q451.669 597.3320000000001 469.333 597.3320000000001T499.499 584.8320000000001Q511.999 572.3320000000001 511.999 554.667z" />
    <glyph glyph-name="zap"
      unicode="&#xE002;"
      horiz-adv-x="1024" d="M537.436 799.3340000000001Q551.731 816.538 573.972 813.752Q590.807 811.662 601.212 798.269Q611.615 784.875 609.526 768.039L574.34 486.4H826.614Q874.578 486.4 891.4540000000001 472.76Q914.719 453.96 914.268 424.018Q913.941 402.308 883.2610000000001 365.486L518.431 -72.294Q504.0960000000001 -89.4979999999999 481.895 -86.712Q465.061 -84.622 454.615 -71.229Q444.212 -57.835 446.342 -40.999L481.528 240.641H229.253Q181.289 240.641 164.413 254.281Q141.148 273.0809999999999 141.599 303.0229999999999Q141.925 324.733 172.604 361.555zM510.894 639.5899999999999L246.7440000000001 322.56H527.934Q544.891 322.56 556.8919999999999 310.56Q568.8919999999999 298.5569999999999 568.8919999999999 281.5999999999999Q568.8919999999999 279.06 568.5659999999999 276.5199999999999L544.9319999999999 87.4499999999998L809.1239999999999 404.4799999999998H527.934Q510.976 404.4799999999998 498.974 416.4799999999998Q486.974 428.4829999999998 486.974 445.4399999999998Q486.974 447.9799999999998 487.301 450.5199999999998L510.895 639.5899999999997z" />
    <glyph glyph-name="zap-1"
      unicode="&#x7A;&#x61;&#x70;"
      horiz-adv-x="1024" d="M537.436 799.3340000000001Q551.731 816.538 573.972 813.752Q590.807 811.662 601.212 798.269Q611.615 784.875 609.526 768.039L574.34 486.4H826.614Q874.578 486.4 891.4540000000001 472.76Q914.719 453.96 914.268 424.018Q913.941 402.308 883.2610000000001 365.486L518.431 -72.294Q504.0960000000001 -89.4979999999999 481.895 -86.712Q465.061 -84.622 454.615 -71.229Q444.212 -57.835 446.342 -40.999L481.528 240.641H229.253Q181.289 240.641 164.413 254.281Q141.148 273.0809999999999 141.599 303.0229999999999Q141.925 324.733 172.604 361.555zM510.894 639.5899999999999L246.7440000000001 322.56H527.934Q544.891 322.56 556.8919999999999 310.56Q568.8919999999999 298.5569999999999 568.8919999999999 281.5999999999999Q568.8919999999999 279.06 568.5659999999999 276.5199999999999L544.9319999999999 87.4499999999998L809.1239999999999 404.4799999999998H527.934Q510.976 404.4799999999998 498.974 416.4799999999998Q486.974 428.4829999999998 486.974 445.4399999999998Q486.974 447.9799999999998 487.301 450.5199999999998L510.895 639.5899999999997z" />
    <glyph glyph-name="zap-square"
      unicode="&#xE003;"
      horiz-adv-x="1024" d="M118.333 535.552Q118.333 648.6020000000001 136.193 683.662Q160.358 731.095 207.79 755.2620000000001Q242.852 773.12 355.9 773.12H699.9649999999999Q813.0149999999999 773.12 848.0769999999999 755.26Q895.5089999999999 731.095 919.6749999999998 683.663Q937.5329999999998 648.6030000000001 937.5329999999998 535.5530000000001V191.4880000000001Q937.5329999999998 78.4380000000001 919.6749999999998 43.378Q895.5089999999998 -4.0549999999999 848.0769999999999 -28.222Q813.0149999999999 -46.0799999999999 699.9649999999999 -46.0799999999999H355.9Q242.852 -46.0799999999999 207.79 -28.2199999999999Q160.358 -4.0549999999999 136.192 43.3770000000001Q118.332 78.4370000000001 118.332 191.4870000000001zM200.253 535.552V191.4880000000001Q200.253 98.0980000000001 209.183 80.5680000000001Q221.266 56.8520000000001 244.983 44.7680000000001Q262.5130000000001 35.8400000000001 355.901 35.8400000000001H699.966Q793.356 35.8400000000001 810.886 44.7700000000001Q834.602 56.8520000000001 846.6859999999999 80.5680000000001Q855.6139999999999 98.0980000000001 855.6139999999999 191.4880000000001V535.552Q855.6139999999999 628.942 846.684 646.472Q834.602 670.187 810.886 682.272Q793.356 691.2 699.966 691.2H355.9Q262.513 691.2 244.982 682.27Q221.266 670.187 209.182 646.472Q200.252 628.942 200.252 535.552zM494.879 633.4870000000001Q507.1659999999999 650.24 527.932 650.24Q544.89 650.24 556.892 638.24Q568.892 626.2370000000001 568.892 609.28V465.92H688.537Q733.879 465.92 750.509 452.977Q773.365 435.2000000000001 774.225 406.2000000000001Q774.798 385.1470000000001 748.01 348.61L560.948 93.554Q548.7 76.8 527.933 76.8Q510.976 76.8 498.975 88.8Q486.973 100.803 486.973 117.76V261.12H367.33Q321.987 261.12 305.357 274.063Q282.46 291.8400000000001 281.64 320.8Q281.068 341.8929999999999 307.855 378.43zM486.972 484.147L383.467 343.04H527.933Q544.891 343.04 556.893 331.04Q568.893 319.0369999999999 568.893 302.08V242.8929999999999L672.4 384H527.932Q510.975 384 498.974 396Q486.972 408.003 486.972 424.96V484.147z" />
    <glyph glyph-name="zap-square-1"
      unicode="&#x7A;&#x61;&#x70;&#x5F;&#x73;&#x71;&#x75;&#x61;&#x72;&#x65;"
      horiz-adv-x="1024" d="M118.333 535.552Q118.333 648.6020000000001 136.193 683.662Q160.358 731.095 207.79 755.2620000000001Q242.852 773.12 355.9 773.12H699.9649999999999Q813.0149999999999 773.12 848.0769999999999 755.26Q895.5089999999999 731.095 919.6749999999998 683.663Q937.5329999999998 648.6030000000001 937.5329999999998 535.5530000000001V191.4880000000001Q937.5329999999998 78.4380000000001 919.6749999999998 43.378Q895.5089999999998 -4.0549999999999 848.0769999999999 -28.222Q813.0149999999999 -46.0799999999999 699.9649999999999 -46.0799999999999H355.9Q242.852 -46.0799999999999 207.79 -28.2199999999999Q160.358 -4.0549999999999 136.192 43.3770000000001Q118.332 78.4370000000001 118.332 191.4870000000001zM200.253 535.552V191.4880000000001Q200.253 98.0980000000001 209.183 80.5680000000001Q221.266 56.8520000000001 244.983 44.7680000000001Q262.5130000000001 35.8400000000001 355.901 35.8400000000001H699.966Q793.356 35.8400000000001 810.886 44.7700000000001Q834.602 56.8520000000001 846.6859999999999 80.5680000000001Q855.6139999999999 98.0980000000001 855.6139999999999 191.4880000000001V535.552Q855.6139999999999 628.942 846.684 646.472Q834.602 670.187 810.886 682.272Q793.356 691.2 699.966 691.2H355.9Q262.513 691.2 244.982 682.27Q221.266 670.187 209.182 646.472Q200.252 628.942 200.252 535.552zM494.879 633.4870000000001Q507.1659999999999 650.24 527.932 650.24Q544.89 650.24 556.892 638.24Q568.892 626.2370000000001 568.892 609.28V465.92H688.537Q733.879 465.92 750.509 452.977Q773.365 435.2000000000001 774.225 406.2000000000001Q774.798 385.1470000000001 748.01 348.61L560.948 93.554Q548.7 76.8 527.933 76.8Q510.976 76.8 498.975 88.8Q486.973 100.803 486.973 117.76V261.12H367.33Q321.987 261.12 305.357 274.063Q282.46 291.8400000000001 281.64 320.8Q281.068 341.8929999999999 307.855 378.43zM486.972 484.147L383.467 343.04H527.933Q544.891 343.04 556.893 331.04Q568.893 319.0369999999999 568.893 302.08V242.8929999999999L672.4 384H527.932Q510.975 384 498.974 396Q486.972 408.003 486.972 424.96V484.147z" />
    <glyph glyph-name="zap-off"
      unicode="&#xE004;"
      horiz-adv-x="1024" d="M867.615 -34.08L694.518 139.02L518.43 -72.294Q504.095 -89.4979999999999 481.8939999999999 -86.712Q465.0599999999999 -84.622 454.6559999999999 -71.229Q444.211 -57.835 446.341 -40.999L481.5269999999999 240.641H229.253Q181.289 240.641 164.413 254.281Q141.148 273.0809999999999 141.599 303.0229999999999Q141.925 324.733 172.604 361.555L308.674 524.862L130.334 703.202Q118.332 715.2049999999999 118.332 732.162T130.334 761.122Q142.334 773.122 159.292 773.122T188.252 761.122L392.355 557.017Q393.379 556.075 394.3210000000001 555.0509999999999L720.0350000000001 229.336Q721.0590000000001 228.394 722.0010000000001 227.37L925.531 23.84Q937.531 11.837 937.531 -5.12T925.531 -34.08Q913.531 -46.08 896.571 -46.08Q879.615 -46.08 867.614 -34.08zM677.437 486.4H826.614Q874.578 486.4 891.4540000000001 472.76Q914.719 453.96 914.268 424.06Q913.941 402.31 883.2610000000001 365.486L827.681 298.803Q816.825 285.778 799.951 284.221Q783.033 282.707 770.008 293.5610000000001Q756.9830000000001 304.4160000000001 755.426 321.331Q753.9110000000001 338.208 764.7660000000001 351.2330000000001L809.1260000000001 404.4810000000001H677.436Q660.479 404.4810000000001 648.4780000000001 416.4810000000001Q636.475 428.4840000000001 636.475 445.4410000000001T648.477 474.401Q660.477 486.401 677.434 486.401zM437.985 680.06L537.4350000000001 799.3340000000001Q548.291 812.36 565.1650000000001 813.9159999999999Q582.0830000000001 815.432 595.1080000000001 804.576Q612.311 790.241 609.5260000000001 768.0409999999999L584.95 571.5160000000001Q582.86 554.681 569.4670000000001 544.278Q556.0730000000001 533.874 539.2370000000001 535.963Q522.4040000000001 538.053 512.0000000000001 551.446Q501.5550000000001 564.839 503.6850000000001 581.674L510.8950000000001 639.591L500.9410000000001 627.591Q490.0870000000001 614.565 473.1710000000001 613.008Q456.2950000000001 611.4929999999999 443.2290000000001 622.348Q430.2040000000001 633.202 428.6890000000001 650.1179999999999Q427.1320000000001 666.9939999999999 437.9860000000001 680.06zM510.975 322.56L366.84 466.698L246.743 322.56H510.976zM636.355 197.18L567.2950000000001 266.24L544.932 87.4500000000001L636.355 197.1800000000001z" />
    <glyph glyph-name="zap-off-1"
      unicode="&#x7A;&#x61;&#x70;&#x5F;&#x6F;&#x66;&#x66;"
      horiz-adv-x="1024" d="M867.615 -34.08L694.518 139.02L518.43 -72.294Q504.095 -89.4979999999999 481.8939999999999 -86.712Q465.0599999999999 -84.622 454.6559999999999 -71.229Q444.211 -57.835 446.341 -40.999L481.5269999999999 240.641H229.253Q181.289 240.641 164.413 254.281Q141.148 273.0809999999999 141.599 303.0229999999999Q141.925 324.733 172.604 361.555L308.674 524.862L130.334 703.202Q118.332 715.2049999999999 118.332 732.162T130.334 761.122Q142.334 773.122 159.292 773.122T188.252 761.122L392.355 557.017Q393.379 556.075 394.3210000000001 555.0509999999999L720.0350000000001 229.336Q721.0590000000001 228.394 722.0010000000001 227.37L925.531 23.84Q937.531 11.837 937.531 -5.12T925.531 -34.08Q913.531 -46.08 896.571 -46.08Q879.615 -46.08 867.614 -34.08zM677.437 486.4H826.614Q874.578 486.4 891.4540000000001 472.76Q914.719 453.96 914.268 424.06Q913.941 402.31 883.2610000000001 365.486L827.681 298.803Q816.825 285.778 799.951 284.221Q783.033 282.707 770.008 293.5610000000001Q756.9830000000001 304.4160000000001 755.426 321.331Q753.9110000000001 338.208 764.7660000000001 351.2330000000001L809.1260000000001 404.4810000000001H677.436Q660.479 404.4810000000001 648.4780000000001 416.4810000000001Q636.475 428.4840000000001 636.475 445.4410000000001T648.477 474.401Q660.477 486.401 677.434 486.401zM437.985 680.06L537.4350000000001 799.3340000000001Q548.291 812.36 565.1650000000001 813.9159999999999Q582.0830000000001 815.432 595.1080000000001 804.576Q612.311 790.241 609.5260000000001 768.0409999999999L584.95 571.5160000000001Q582.86 554.681 569.4670000000001 544.278Q556.0730000000001 533.874 539.2370000000001 535.963Q522.4040000000001 538.053 512.0000000000001 551.446Q501.5550000000001 564.839 503.6850000000001 581.674L510.8950000000001 639.591L500.9410000000001 627.591Q490.0870000000001 614.565 473.1710000000001 613.008Q456.2950000000001 611.4929999999999 443.2290000000001 622.348Q430.2040000000001 633.202 428.6890000000001 650.1179999999999Q427.1320000000001 666.9939999999999 437.9860000000001 680.06zM510.975 322.56L366.84 466.698L246.743 322.56H510.976zM636.355 197.18L567.2950000000001 266.24L544.932 87.4500000000001L636.355 197.1800000000001z" />
    <glyph glyph-name="zap-fast"
      unicode="&#xE005;"
      horiz-adv-x="1024" d="M699.392 755.958Q713.7280000000001 776.028 738.1400000000001 772.751Q754.9750000000001 770.501 765.2560000000001 757.024Q775.5780000000001 743.548 773.3260000000001 726.754L738.55 465.92H894.3199999999999Q939.172 465.92 955.76 453.1Q978.534 435.528 979.6 406.733Q980.378 385.803 954.327 349.348L684.155 -28.918Q669.819 -48.9880000000001 645.4069999999999 -45.711Q628.5719999999999 -43.461 618.2909999999999 -29.984Q607.9709999999999 -16.508 610.223 0.2859999999999L644.9979999999999 261.1189999999999H489.185Q444.375 261.1189999999999 427.7850000000001 273.8989999999999Q405.012 291.5109999999999 403.9070000000001 320.306Q403.1690000000001 341.1959999999999 429.1790000000001 377.65L429.2190000000001 377.692zM670.3520000000001 574.3820000000001L505.118 343.04H691.771Q708.7289999999999 343.04 720.731 331.04Q732.731 319.0369999999999 732.731 302.08Q732.731 299.377 732.3629999999999 296.6729999999999L713.1529999999999 152.6579999999999L878.428 384H691.773Q674.816 384 662.815 396Q650.8130000000001 408.003 650.8130000000001 424.96Q650.8130000000001 427.663 651.1830000000001 430.367L670.3510000000001 574.382zM405.05 97.28H179.77Q162.814 97.28 150.813 109.28Q138.811 121.283 138.811 138.24T150.813 167.2000000000001Q162.813 179.2000000000001 179.771 179.2000000000001H405.0510000000001Q422.009 179.2000000000001 434.011 167.2000000000001Q446.011 155.197 446.011 138.24T434.011 109.28Q422.009 97.28 405.0510000000001 97.28zM405.05 547.8399999999999H200.25Q183.294 547.8399999999999 171.293 559.8399999999999Q159.291 571.843 159.291 588.8T171.293 617.76Q183.293 629.76 200.251 629.76H405.0510000000001Q422.009 629.76 434.011 617.76Q446.011 605.757 446.011 588.8T434.011 559.8399999999999Q422.009 547.8399999999999 405.0510000000001 547.8399999999999zM302.65 322.56H118.33Q101.374 322.56 89.373 334.56Q77.371 346.563 77.371 363.52T89.373 392.48Q101.373 404.48 118.331 404.48H302.651Q319.6089999999999 404.48 331.611 392.48Q343.611 380.477 343.611 363.52T331.611 334.56Q319.6089999999999 322.56 302.651 322.56z" />
    <glyph glyph-name="zap-fast-1"
      unicode="&#x7A;&#x61;&#x70;&#x5F;&#x66;&#x61;&#x73;&#x74;"
      horiz-adv-x="1024" d="M699.392 755.958Q713.7280000000001 776.028 738.1400000000001 772.751Q754.9750000000001 770.501 765.2560000000001 757.024Q775.5780000000001 743.548 773.3260000000001 726.754L738.55 465.92H894.3199999999999Q939.172 465.92 955.76 453.1Q978.534 435.528 979.6 406.733Q980.378 385.803 954.327 349.348L684.155 -28.918Q669.819 -48.9880000000001 645.4069999999999 -45.711Q628.5719999999999 -43.461 618.2909999999999 -29.984Q607.9709999999999 -16.508 610.223 0.2859999999999L644.9979999999999 261.1189999999999H489.185Q444.375 261.1189999999999 427.7850000000001 273.8989999999999Q405.012 291.5109999999999 403.9070000000001 320.306Q403.1690000000001 341.1959999999999 429.1790000000001 377.65L429.2190000000001 377.692zM670.3520000000001 574.3820000000001L505.118 343.04H691.771Q708.7289999999999 343.04 720.731 331.04Q732.731 319.0369999999999 732.731 302.08Q732.731 299.377 732.3629999999999 296.6729999999999L713.1529999999999 152.6579999999999L878.428 384H691.773Q674.816 384 662.815 396Q650.8130000000001 408.003 650.8130000000001 424.96Q650.8130000000001 427.663 651.1830000000001 430.367L670.3510000000001 574.382zM405.05 97.28H179.77Q162.814 97.28 150.813 109.28Q138.811 121.283 138.811 138.24T150.813 167.2000000000001Q162.813 179.2000000000001 179.771 179.2000000000001H405.0510000000001Q422.009 179.2000000000001 434.011 167.2000000000001Q446.011 155.197 446.011 138.24T434.011 109.28Q422.009 97.28 405.0510000000001 97.28zM405.05 547.8399999999999H200.25Q183.294 547.8399999999999 171.293 559.8399999999999Q159.291 571.843 159.291 588.8T171.293 617.76Q183.293 629.76 200.251 629.76H405.0510000000001Q422.009 629.76 434.011 617.76Q446.011 605.757 446.011 588.8T434.011 559.8399999999999Q422.009 547.8399999999999 405.0510000000001 547.8399999999999zM302.65 322.56H118.33Q101.374 322.56 89.373 334.56Q77.371 346.563 77.371 363.52T89.373 392.48Q101.373 404.48 118.331 404.48H302.651Q319.6089999999999 404.48 331.611 392.48Q343.611 380.477 343.611 363.52T331.611 334.56Q319.6089999999999 322.56 302.651 322.56z" />
    <glyph glyph-name="zap-circle"
      unicode="&#xE006;"
      horiz-adv-x="1024" d="M494.182 652.984Q506.389 670.72 527.932 670.72Q544.892 670.72 556.892 658.72Q568.892 646.717 568.892 629.76V465.92H690.912Q735.027 465.92 751.534 453.304Q774.226 436.019 775.619 407.552Q776.682 386.785 751.6560000000001 350.4119999999999L561.684 74.057Q549.478 56.321 527.934 56.321Q510.976 56.321 498.974 68.321Q486.974 80.3240000000001 486.974 97.2810000000001V261.12H364.954Q320.799 261.12 304.2920000000001 273.736Q281.6420000000001 291.021 280.2070000000001 319.529Q279.1830000000001 340.254 304.1690000000001 376.626zM486.972 497.869L380.52 343.04H527.935Q544.8929999999999 343.04 556.895 331.04Q568.895 319.0369999999999 568.895 302.08V229.17L675.348 384H527.933Q510.976 384 498.975 396Q486.973 408.003 486.973 424.96V497.87zM527.932 -87.0409999999999Q341.3200000000001 -87.0409999999999 209.347 44.932Q77.373 176.906 77.373 363.52Q77.373 550.134 209.347 682.107Q341.32 814.08 527.933 814.08Q714.547 814.08 846.52 682.107Q978.493 550.134 978.493 363.52Q978.493 176.906 846.52 44.933Q714.547 -87.04 527.933 -87.04zM527.932 -5.121Q680.6320000000001 -5.121 788.6020000000001 102.8490000000001Q896.5720000000001 210.8190000000001 896.5720000000001 363.519Q896.5720000000001 516.219 788.6020000000001 624.1890000000001Q680.6320000000001 732.159 527.932 732.159Q375.235 732.159 267.264 624.1890000000001Q159.294 516.219 159.294 363.519Q159.294 210.819 267.264 102.8489999999999Q375.2340000000001 -5.1210000000001 527.934 -5.1210000000001z" />
    <glyph glyph-name="zap-circle-1"
      unicode="&#x7A;&#x61;&#x70;&#x5F;&#x63;&#x69;&#x72;&#x63;&#x6C;&#x65;"
      horiz-adv-x="1024" d="M494.182 652.984Q506.389 670.72 527.932 670.72Q544.892 670.72 556.892 658.72Q568.892 646.717 568.892 629.76V465.92H690.912Q735.027 465.92 751.534 453.304Q774.226 436.019 775.619 407.552Q776.682 386.785 751.6560000000001 350.4119999999999L561.684 74.057Q549.478 56.321 527.934 56.321Q510.976 56.321 498.974 68.321Q486.974 80.3240000000001 486.974 97.2810000000001V261.12H364.954Q320.799 261.12 304.2920000000001 273.736Q281.6420000000001 291.021 280.2070000000001 319.529Q279.1830000000001 340.254 304.1690000000001 376.626zM486.972 497.869L380.52 343.04H527.935Q544.8929999999999 343.04 556.895 331.04Q568.895 319.0369999999999 568.895 302.08V229.17L675.348 384H527.933Q510.976 384 498.975 396Q486.973 408.003 486.973 424.96V497.87zM527.932 -87.0409999999999Q341.3200000000001 -87.0409999999999 209.347 44.932Q77.373 176.906 77.373 363.52Q77.373 550.134 209.347 682.107Q341.32 814.08 527.933 814.08Q714.547 814.08 846.52 682.107Q978.493 550.134 978.493 363.52Q978.493 176.906 846.52 44.933Q714.547 -87.04 527.933 -87.04zM527.932 -5.121Q680.6320000000001 -5.121 788.6020000000001 102.8490000000001Q896.5720000000001 210.8190000000001 896.5720000000001 363.519Q896.5720000000001 516.219 788.6020000000001 624.1890000000001Q680.6320000000001 732.159 527.932 732.159Q375.235 732.159 267.264 624.1890000000001Q159.294 516.219 159.294 363.519Q159.294 210.819 267.264 102.8489999999999Q375.2340000000001 -5.1210000000001 527.934 -5.1210000000001z" />
    <glyph glyph-name="youtube"
      unicode="&#xE007;"
      horiz-adv-x="1024" d="M962.176 599.168Q962.516 597.803 962.773 596.395Q981.973 489.941 981.291 382.208Q981.676 275.668 962.774 170.88Q962.518 169.472 962.177 168.107Q952.364 128.853 924.247 99.8399999999999Q896.0870000000001 70.8269999999999 856.5770000000001 59.6479999999999Q784.47 40.3630000000001 512 40.3630000000001Q239.53 40.3630000000001 167.168 59.7330000000001Q129.108 70.143 101.035 97.9200000000001Q72.96 125.696 62.165 163.6700000000001Q61.568 165.6750000000001 61.227 167.7650000000001Q42.027 274.2190000000001 42.709 381.8670000000001Q42.154 489.2170000000001 61.226 594.817Q61.439 596.224 61.823 597.6320000000001Q71.636 636.8420000000001 99.753 665.856Q127.913 694.869 167.423 706.048Q239.53 725.333 512 725.333Q784 725.333 855.6800000000001 707.84Q856.4480000000001 707.627 857.1730000000001 707.413Q896.0850000000002 696.405 924.2450000000002 667.393Q952.3630000000002 638.379 962.175 599.168zM879.104 579.668Q874.71 595.884 862.976 608Q851.029 620.288 834.646 625.11Q772.052 640 512 640Q250.752 640 189.483 623.616Q173.227 619.008 161.023 606.421Q149.291 594.348 144.896 578.134Q127.531 480.982 128.043 382.294Q127.403 282.754 144.768 185.217Q149.588 169.942 161.068 158.593Q173.228 146.5609999999999 189.696 142.038Q250.752 125.698 511.9999999999999 125.698T834.5169999999999 142.081Q850.7729999999999 146.689 862.977 159.2760000000001Q874.709 171.35 879.1039999999999 187.5640000000001Q896.34 283.947 896 381.91Q896.597 481.792 879.104 579.67zM373.3340000000001 492.16Q373.3340000000001 536.875 386.0910000000001 553.94Q403.6280000000001 577.365 432.7690000000001 579.413Q454.0170000000001 580.9490000000001 491.6490000000001 556.7570000000001L659.884 448.5970000000001Q693.292 427.1370000000001 700.972 408.9170000000001Q711.512 384.0000000000001 701.015 359.1250000000001Q693.293 340.8650000000001 659.885 319.4030000000002L491.65 211.2430000000002Q454.018 187.0510000000002 432.77 188.5870000000002Q403.63 190.6350000000002 386.093 214.0590000000002Q373.336 231.0820000000002 373.336 275.8390000000002zM458.667 476.5V291.5L602.58 384L458.667 476.5z" />
    <glyph glyph-name="youtube-1"
      unicode="&#x79;&#x6F;&#x75;&#x74;&#x75;&#x62;&#x65;"
      horiz-adv-x="1024" d="M962.176 599.168Q962.516 597.803 962.773 596.395Q981.973 489.941 981.291 382.208Q981.676 275.668 962.774 170.88Q962.518 169.472 962.177 168.107Q952.364 128.853 924.247 99.8399999999999Q896.0870000000001 70.8269999999999 856.5770000000001 59.6479999999999Q784.47 40.3630000000001 512 40.3630000000001Q239.53 40.3630000000001 167.168 59.7330000000001Q129.108 70.143 101.035 97.9200000000001Q72.96 125.696 62.165 163.6700000000001Q61.568 165.6750000000001 61.227 167.7650000000001Q42.027 274.2190000000001 42.709 381.8670000000001Q42.154 489.2170000000001 61.226 594.817Q61.439 596.224 61.823 597.6320000000001Q71.636 636.8420000000001 99.753 665.856Q127.913 694.869 167.423 706.048Q239.53 725.333 512 725.333Q784 725.333 855.6800000000001 707.84Q856.4480000000001 707.627 857.1730000000001 707.413Q896.0850000000002 696.405 924.2450000000002 667.393Q952.3630000000002 638.379 962.175 599.168zM879.104 579.668Q874.71 595.884 862.976 608Q851.029 620.288 834.646 625.11Q772.052 640 512 640Q250.752 640 189.483 623.616Q173.227 619.008 161.023 606.421Q149.291 594.348 144.896 578.134Q127.531 480.982 128.043 382.294Q127.403 282.754 144.768 185.217Q149.588 169.942 161.068 158.593Q173.228 146.5609999999999 189.696 142.038Q250.752 125.698 511.9999999999999 125.698T834.5169999999999 142.081Q850.7729999999999 146.689 862.977 159.2760000000001Q874.709 171.35 879.1039999999999 187.5640000000001Q896.34 283.947 896 381.91Q896.597 481.792 879.104 579.67zM373.3340000000001 492.16Q373.3340000000001 536.875 386.0910000000001 553.94Q403.6280000000001 577.365 432.7690000000001 579.413Q454.0170000000001 580.9490000000001 491.6490000000001 556.7570000000001L659.884 448.5970000000001Q693.292 427.1370000000001 700.972 408.9170000000001Q711.512 384.0000000000001 701.015 359.1250000000001Q693.293 340.8650000000001 659.885 319.4030000000002L491.65 211.2430000000002Q454.018 187.0510000000002 432.77 188.5870000000002Q403.63 190.6350000000002 386.093 214.0590000000002Q373.336 231.0820000000002 373.336 275.8390000000002zM458.667 476.5V291.5L602.58 384L458.667 476.5z" />
    <glyph glyph-name="x"
      unicode="&#xE008;"
      horiz-adv-x="1024" d="M761.692 539.36L585.852 363.52L761.692 187.68Q773.692 175.6769999999999 773.692 158.7199999999999T761.692 129.7599999999999Q749.692 117.7599999999999 732.732 117.7599999999999Q715.776 117.7599999999999 703.775 129.7599999999999L527.933 305.6040000000001L352.093 129.76Q340.091 117.76 323.1330000000001 117.76Q306.1760000000001 117.76 294.1750000000001 129.76Q282.1730000000001 141.763 282.1730000000001 158.72T294.1750000000001 187.6800000000001L470.0150000000001 363.5200000000001L294.1750000000001 539.3600000000001Q282.1730000000001 551.363 282.1730000000001 568.3200000000002T294.1750000000001 597.2800000000001Q306.1750000000001 609.2800000000001 323.1330000000001 609.2800000000001T352.093 597.2800000000001L527.933 421.4370000000002L703.775 597.28Q715.775 609.28 732.733 609.28T761.693 597.28Q773.693 585.277 773.693 568.3199999999999T761.693 539.36z" />
    <glyph glyph-name="x-1"
      unicode="&#x78;"
      horiz-adv-x="1024" d="M761.692 539.36L585.852 363.52L761.692 187.68Q773.692 175.6769999999999 773.692 158.7199999999999T761.692 129.7599999999999Q749.692 117.7599999999999 732.732 117.7599999999999Q715.776 117.7599999999999 703.775 129.7599999999999L527.933 305.6040000000001L352.093 129.76Q340.091 117.76 323.1330000000001 117.76Q306.1760000000001 117.76 294.1750000000001 129.76Q282.1730000000001 141.763 282.1730000000001 158.72T294.1750000000001 187.6800000000001L470.0150000000001 363.5200000000001L294.1750000000001 539.3600000000001Q282.1730000000001 551.363 282.1730000000001 568.3200000000002T294.1750000000001 597.2800000000001Q306.1750000000001 609.2800000000001 323.1330000000001 609.2800000000001T352.093 597.2800000000001L527.933 421.4370000000002L703.775 597.28Q715.775 609.28 732.733 609.28T761.693 597.28Q773.693 585.277 773.693 568.3199999999999T761.693 539.36z" />
    <glyph glyph-name="x-square"
      unicode="&#xE009;"
      horiz-adv-x="1024" d="M355.9 -46.08Q242.852 -46.08 207.79 -28.22Q160.358 -4.0550000000001 136.192 43.377Q118.332 78.4369999999999 118.332 191.487V535.553Q118.332 648.6030000000001 136.192 683.663Q160.358 731.096 207.79 755.263Q242.852 773.121 355.9 773.121H699.9649999999999Q813.0149999999999 773.121 848.0769999999999 755.261Q895.5089999999999 731.096 919.6749999999998 683.664Q937.5329999999998 648.604 937.5329999999998 535.5540000000001V191.489Q937.5329999999998 78.4390000000001 919.6749999999998 43.379Q895.5089999999998 -4.054 848.0769999999999 -28.221Q813.0149999999999 -46.0789999999999 699.9649999999999 -46.0789999999999zM355.9 35.8399999999999H699.9649999999999Q793.3549999999999 35.8399999999999 810.8849999999999 44.7699999999999Q834.6009999999999 56.8519999999999 846.6849999999998 80.5679999999999Q855.6129999999998 98.0979999999998 855.6129999999998 191.4879999999998V535.552Q855.6129999999998 628.942 846.6829999999999 646.472Q834.6009999999999 670.187 810.8849999999999 682.272Q793.3549999999999 691.2 699.9649999999999 691.2H355.9Q262.513 691.2 244.982 682.27Q221.266 670.187 209.182 646.472Q200.252 628.942 200.252 535.552V191.4880000000001Q200.252 98.0980000000001 209.182 80.5680000000001Q221.266 56.8520000000001 244.982 44.7680000000001Q262.512 35.8400000000001 355.902 35.8400000000001zM434.012 515.3599999999999L527.9319999999999 421.4369999999999L621.8549999999999 515.3589999999999Q633.8549999999999 527.3589999999999 650.8129999999999 527.3589999999999T679.7729999999999 515.3589999999999Q691.7729999999999 503.3559999999999 691.7729999999999 486.3989999999999T679.7729999999999 457.439L585.8509999999999 363.519L679.7729999999999 269.5990000000001Q691.7729999999999 257.596 691.7729999999999 240.639T679.7729999999999 211.679Q667.7729999999999 199.679 650.8129999999999 199.679Q633.8569999999999 199.679 621.8559999999999 211.679L527.9339999999999 305.602L434.0139999999999 211.68Q422.0119999999999 199.68 405.0539999999999 199.68Q388.0969999999999 199.68 376.0959999999999 211.68Q364.0939999999999 223.683 364.0939999999999 240.64T376.0959999999999 269.6L470.0159999999999 363.52L376.0959999999999 457.44Q364.0939999999999 469.443 364.0939999999999 486.4T376.0959999999999 515.3599999999999Q388.0959999999999 527.3599999999999 405.0539999999999 527.3599999999999T434.0139999999999 515.3599999999999z" />
    <glyph glyph-name="x-square-1"
      unicode="&#x78;&#x5F;&#x73;&#x71;&#x75;&#x61;&#x72;&#x65;"
      horiz-adv-x="1024" d="M355.9 -46.08Q242.852 -46.08 207.79 -28.22Q160.358 -4.0550000000001 136.192 43.377Q118.332 78.4369999999999 118.332 191.487V535.553Q118.332 648.6030000000001 136.192 683.663Q160.358 731.096 207.79 755.263Q242.852 773.121 355.9 773.121H699.9649999999999Q813.0149999999999 773.121 848.0769999999999 755.261Q895.5089999999999 731.096 919.6749999999998 683.664Q937.5329999999998 648.604 937.5329999999998 535.5540000000001V191.489Q937.5329999999998 78.4390000000001 919.6749999999998 43.379Q895.5089999999998 -4.054 848.0769999999999 -28.221Q813.0149999999999 -46.0789999999999 699.9649999999999 -46.0789999999999zM355.9 35.8399999999999H699.9649999999999Q793.3549999999999 35.8399999999999 810.8849999999999 44.7699999999999Q834.6009999999999 56.8519999999999 846.6849999999998 80.5679999999999Q855.6129999999998 98.0979999999998 855.6129999999998 191.4879999999998V535.552Q855.6129999999998 628.942 846.6829999999999 646.472Q834.6009999999999 670.187 810.8849999999999 682.272Q793.3549999999999 691.2 699.9649999999999 691.2H355.9Q262.513 691.2 244.982 682.27Q221.266 670.187 209.182 646.472Q200.252 628.942 200.252 535.552V191.4880000000001Q200.252 98.0980000000001 209.182 80.5680000000001Q221.266 56.8520000000001 244.982 44.7680000000001Q262.512 35.8400000000001 355.902 35.8400000000001zM434.012 515.3599999999999L527.9319999999999 421.4369999999999L621.8549999999999 515.3589999999999Q633.8549999999999 527.3589999999999 650.8129999999999 527.3589999999999T679.7729999999999 515.3589999999999Q691.7729999999999 503.3559999999999 691.7729999999999 486.3989999999999T679.7729999999999 457.439L585.8509999999999 363.519L679.7729999999999 269.5990000000001Q691.7729999999999 257.596 691.7729999999999 240.639T679.7729999999999 211.679Q667.7729999999999 199.679 650.8129999999999 199.679Q633.8569999999999 199.679 621.8559999999999 211.679L527.9339999999999 305.602L434.0139999999999 211.68Q422.0119999999999 199.68 405.0539999999999 199.68Q388.0969999999999 199.68 376.0959999999999 211.68Q364.0939999999999 223.683 364.0939999999999 240.64T376.0959999999999 269.6L470.0159999999999 363.52L376.0959999999999 457.44Q364.0939999999999 469.443 364.0939999999999 486.4T376.0959999999999 515.3599999999999Q388.0959999999999 527.3599999999999 405.0539999999999 527.3599999999999T434.0139999999999 515.3599999999999z" />
    <glyph glyph-name="x-close"
      unicode="&#xE00A;"
      horiz-adv-x="1024" d="M802.652 580.3199999999999L585.8520000000001 363.52L802.652 146.72Q814.652 134.717 814.652 117.76T802.652 88.8Q790.652 76.8 773.692 76.8Q756.736 76.8 744.735 88.8L527.933 305.6040000000001L311.133 88.8Q299.131 76.8 282.173 76.8Q265.216 76.8 253.215 88.8Q241.213 100.803 241.213 117.76T253.215 146.72L470.015 363.52L253.215 580.3199999999999Q241.213 592.323 241.213 609.28T253.215 638.24Q265.215 650.24 282.173 650.24T311.133 638.24L527.933 421.437L744.735 638.24Q756.735 650.24 773.693 650.24T802.653 638.24Q814.653 626.2370000000001 814.653 609.28T802.653 580.32z" />
    <glyph glyph-name="x-close-1"
      unicode="&#x78;&#x5F;&#x63;&#x6C;&#x6F;&#x73;&#x65;"
      horiz-adv-x="1024" d="M802.652 580.3199999999999L585.8520000000001 363.52L802.652 146.72Q814.652 134.717 814.652 117.76T802.652 88.8Q790.652 76.8 773.692 76.8Q756.736 76.8 744.735 88.8L527.933 305.6040000000001L311.133 88.8Q299.131 76.8 282.173 76.8Q265.216 76.8 253.215 88.8Q241.213 100.803 241.213 117.76T253.215 146.72L470.015 363.52L253.215 580.3199999999999Q241.213 592.323 241.213 609.28T253.215 638.24Q265.215 650.24 282.173 650.24T311.133 638.24L527.933 421.437L744.735 638.24Q756.735 650.24 773.693 650.24T802.653 638.24Q814.653 626.2370000000001 814.653 609.28T802.653 580.32z" />
    <glyph glyph-name="x-circle"
      unicode="&#xE00B;"
      horiz-adv-x="1024" d="M978.493 363.52Q978.493 176.906 846.52 44.933Q714.547 -87.04 527.933 -87.04Q341.32 -87.04 209.347 44.933Q77.373 176.906 77.373 363.52Q77.373 550.134 209.347 682.107Q341.32 814.08 527.933 814.08Q714.547 814.08 846.52 682.107Q978.493 550.134 978.493 363.52zM896.5730000000001 363.52Q896.5730000000001 516.22 788.6030000000001 624.19Q680.633 732.16 527.933 732.16Q375.235 732.16 267.263 624.19Q159.293 516.22 159.293 363.52Q159.293 210.8199999999999 267.263 102.8499999999999Q375.235 -5.1200000000001 527.933 -5.1200000000001Q680.633 -5.1200000000001 788.6030000000001 102.8499999999999Q896.5730000000001 210.8199999999999 896.5730000000001 363.52zM679.7730000000001 457.44L585.8510000000001 363.52L679.7730000000001 269.6Q691.7730000000001 257.597 691.7730000000001 240.64T679.7730000000001 211.68Q667.7730000000001 199.68 650.8130000000001 199.68Q633.8570000000001 199.68 621.8560000000001 211.68L527.9340000000001 305.603L434.0140000000001 211.6809999999999Q422.0120000000001 199.6809999999999 405.0540000000001 199.6809999999999Q388.0970000000001 199.6809999999999 376.0960000000001 211.6809999999999Q364.0940000000001 223.684 364.0940000000001 240.641T376.0960000000001 269.601L470.0160000000001 363.521L376.0960000000001 457.441Q364.0940000000001 469.444 364.0940000000001 486.401T376.0960000000001 515.3609999999999Q388.0960000000001 527.3609999999999 405.0540000000001 527.3609999999999T434.0140000000001 515.3609999999999L527.9340000000001 421.438L621.8560000000001 515.3599999999999Q633.8560000000001 527.3599999999999 650.8140000000001 527.3599999999999T679.7740000000001 515.3599999999999Q691.7740000000001 503.3569999999999 691.7740000000001 486.3999999999999T679.7740000000001 457.4399999999999z" />
    <glyph glyph-name="x-circle-1"
      unicode="&#x78;&#x5F;&#x63;&#x69;&#x72;&#x63;&#x6C;&#x65;"
      horiz-adv-x="1024" d="M978.493 363.52Q978.493 176.906 846.52 44.933Q714.547 -87.04 527.933 -87.04Q341.32 -87.04 209.347 44.933Q77.373 176.906 77.373 363.52Q77.373 550.134 209.347 682.107Q341.32 814.08 527.933 814.08Q714.547 814.08 846.52 682.107Q978.493 550.134 978.493 363.52zM896.5730000000001 363.52Q896.5730000000001 516.22 788.6030000000001 624.19Q680.633 732.16 527.933 732.16Q375.235 732.16 267.263 624.19Q159.293 516.22 159.293 363.52Q159.293 210.8199999999999 267.263 102.8499999999999Q375.235 -5.1200000000001 527.933 -5.1200000000001Q680.633 -5.1200000000001 788.6030000000001 102.8499999999999Q896.5730000000001 210.8199999999999 896.5730000000001 363.52zM679.7730000000001 457.44L585.8510000000001 363.52L679.7730000000001 269.6Q691.7730000000001 257.597 691.7730000000001 240.64T679.7730000000001 211.68Q667.7730000000001 199.68 650.8130000000001 199.68Q633.8570000000001 199.68 621.8560000000001 211.68L527.9340000000001 305.603L434.0140000000001 211.6809999999999Q422.0120000000001 199.6809999999999 405.0540000000001 199.6809999999999Q388.0970000000001 199.6809999999999 376.0960000000001 211.6809999999999Q364.0940000000001 223.684 364.0940000000001 240.641T376.0960000000001 269.601L470.0160000000001 363.521L376.0960000000001 457.441Q364.0940000000001 469.444 364.0940000000001 486.401T376.0960000000001 515.3609999999999Q388.0960000000001 527.3609999999999 405.0540000000001 527.3609999999999T434.0140000000001 515.3609999999999L527.9340000000001 421.438L621.8560000000001 515.3599999999999Q633.8560000000001 527.3599999999999 650.8140000000001 527.3599999999999T679.7740000000001 515.3599999999999Q691.7740000000001 503.3569999999999 691.7740000000001 486.3999999999999T679.7740000000001 457.4399999999999z" />
    <glyph glyph-name="wind-03"
      unicode="&#xE00C;"
      horiz-adv-x="1024" d="M491.05 71.125Q516.523 42.667 554.667 42.667Q640 42.667 640 128T554.667 213.333H85.333Q67.669 213.333 55.168 225.8349999999999Q42.668 238.3349999999999 42.668 255.9999999999999Q42.668 273.6639999999999 55.168 286.1649999999999Q67.668 298.6669999999998 85.333 298.6669999999998H554.667Q725.3330000000001 298.6669999999998 725.3330000000001 127.9999999999998T554.667 -42.667Q478.379 -42.667 427.4770000000001 14.208Q415.701 27.3919999999999 416.6400000000001 45.0129999999999Q417.6200000000001 62.6769999999999 430.8050000000001 74.453Q443.9890000000001 86.2289999999999 461.611 85.2479999999999Q479.2760000000001 84.3079999999999 491.051 71.1249999999999zM256.81 753.792Q307.713 810.667 384 810.667Q554.667 810.667 554.667 640T384 469.333H85.333Q67.669 469.333 55.168 481.835Q42.668 494.335 42.668 512Q42.668 529.664 55.168 542.1650000000001Q67.668 554.6670000000001 85.333 554.6670000000001H384Q469.333 554.6670000000001 469.333 640.0000000000001T384 725.333Q345.856 725.333 320.384 696.875Q308.608 683.691 290.944 682.752Q273.324 681.772 260.139 693.547Q246.954 705.323 245.972 722.987Q245.034 740.607 256.81 753.792zM683.477 647.125Q734.38 704 810.667 704Q981.333 704 981.333 533.333Q981.333 362.6669999999999 810.6670000000001 362.6669999999999H554.6670000000001Q537.0030000000002 362.6669999999999 524.5010000000001 375.1669999999999Q512 387.67 512 405.334T524.5 435.5Q537.003 448 554.667 448H810.667Q896 448 896 533.3330000000001Q896 618.667 810.667 618.667Q772.523 618.667 747.051 590.2070000000001Q735.2760000000001 577.0240000000001 717.611 576.085Q699.991 575.105 686.806 586.8800000000001Q673.6220000000001 598.6560000000001 672.6410000000001 616.32Q671.701 633.94 683.4780000000001 647.125z" />
    <glyph glyph-name="wind-03-1"
      unicode="&#x77;&#x69;&#x6E;&#x64;&#x5F;&#x30;&#x33;"
      horiz-adv-x="1024" d="M491.05 71.125Q516.523 42.667 554.667 42.667Q640 42.667 640 128T554.667 213.333H85.333Q67.669 213.333 55.168 225.8349999999999Q42.668 238.3349999999999 42.668 255.9999999999999Q42.668 273.6639999999999 55.168 286.1649999999999Q67.668 298.6669999999998 85.333 298.6669999999998H554.667Q725.3330000000001 298.6669999999998 725.3330000000001 127.9999999999998T554.667 -42.667Q478.379 -42.667 427.4770000000001 14.208Q415.701 27.3919999999999 416.6400000000001 45.0129999999999Q417.6200000000001 62.6769999999999 430.8050000000001 74.453Q443.9890000000001 86.2289999999999 461.611 85.2479999999999Q479.2760000000001 84.3079999999999 491.051 71.1249999999999zM256.81 753.792Q307.713 810.667 384 810.667Q554.667 810.667 554.667 640T384 469.333H85.333Q67.669 469.333 55.168 481.835Q42.668 494.335 42.668 512Q42.668 529.664 55.168 542.1650000000001Q67.668 554.6670000000001 85.333 554.6670000000001H384Q469.333 554.6670000000001 469.333 640.0000000000001T384 725.333Q345.856 725.333 320.384 696.875Q308.608 683.691 290.944 682.752Q273.324 681.772 260.139 693.547Q246.954 705.323 245.972 722.987Q245.034 740.607 256.81 753.792zM683.477 647.125Q734.38 704 810.667 704Q981.333 704 981.333 533.333Q981.333 362.6669999999999 810.6670000000001 362.6669999999999H554.6670000000001Q537.0030000000002 362.6669999999999 524.5010000000001 375.1669999999999Q512 387.67 512 405.334T524.5 435.5Q537.003 448 554.667 448H810.667Q896 448 896 533.3330000000001Q896 618.667 810.667 618.667Q772.523 618.667 747.051 590.2070000000001Q735.2760000000001 577.0240000000001 717.611 576.085Q699.991 575.105 686.806 586.8800000000001Q673.6220000000001 598.6560000000001 672.6410000000001 616.32Q671.701 633.94 683.4780000000001 647.125z" />
    <glyph glyph-name="wind-02"
      unicode="&#xE00D;"
      horiz-adv-x="1024" d="M683.477 625.7919999999999Q734.379 682.6669999999999 810.6669999999999 682.6669999999999Q981.3329999999999 682.6669999999999 981.3329999999999 512T810.667 341.333H85.333Q67.669 341.333 55.168 353.8349999999999Q42.668 366.3349999999999 42.668 383.9999999999999Q42.668 401.6639999999999 55.168 414.1649999999999Q67.668 426.6669999999999 85.333 426.6669999999999H810.6669999999999Q896 426.667 896 512T810.667 597.333Q772.523 597.333 747.051 568.875Q735.2760000000001 555.691 717.611 554.752Q699.991 553.7719999999999 686.806 565.547Q673.6220000000001 577.3230000000001 672.6410000000001 594.9870000000001Q671.701 612.607 683.4780000000001 625.792zM565.504 99.584Q578.261 85.334 597.3340000000001 85.334Q640 85.333 640 128Q640 170.667 597.333 170.667H85.333Q67.669 170.667 55.168 183.167Q42.668 195.669 42.668 213.3330000000001T55.168 243.4990000000002Q67.668 255.9990000000002 85.333 255.9990000000002H597.333Q725.333 255.9990000000002 725.333 127.9990000000001T597.333 -0.0009999999999Q540.117 -0.0009999999999 501.931 42.6660000000002Q490.156 55.8060000000002 491.137 73.4710000000001Q492.117 91.1350000000001 505.26 102.9110000000002Q518.443 114.6870000000001 536.107 113.7060000000001Q553.727 112.7240000000002 565.504 99.5830000000001zM373.93 725.3340000000001Q412.118 768 469.334 768Q597.3340000000001 768 597.3340000000001 640T469.3340000000001 512H85.3340000000001Q67.6700000000001 512 55.1690000000001 524.5Q42.6690000000001 537.0029999999999 42.6690000000001 554.667T55.1690000000001 584.8320000000001Q67.6690000000001 597.3320000000001 85.3340000000001 597.3320000000001H469.3340000000001Q512 597.3330000000001 512 640Q512 682.667 469.333 682.667Q450.261 682.667 437.503 668.417Q425.728 655.275 408.107 654.293Q390.443 653.313 377.259 665.088Q364.116 676.864 363.135 694.528Q362.1549999999999 712.192 373.93 725.333z" />
    <glyph glyph-name="wind-02-1"
      unicode="&#x77;&#x69;&#x6E;&#x64;&#x5F;&#x30;&#x32;"
      horiz-adv-x="1024" d="M683.477 625.7919999999999Q734.379 682.6669999999999 810.6669999999999 682.6669999999999Q981.3329999999999 682.6669999999999 981.3329999999999 512T810.667 341.333H85.333Q67.669 341.333 55.168 353.8349999999999Q42.668 366.3349999999999 42.668 383.9999999999999Q42.668 401.6639999999999 55.168 414.1649999999999Q67.668 426.6669999999999 85.333 426.6669999999999H810.6669999999999Q896 426.667 896 512T810.667 597.333Q772.523 597.333 747.051 568.875Q735.2760000000001 555.691 717.611 554.752Q699.991 553.7719999999999 686.806 565.547Q673.6220000000001 577.3230000000001 672.6410000000001 594.9870000000001Q671.701 612.607 683.4780000000001 625.792zM565.504 99.584Q578.261 85.334 597.3340000000001 85.334Q640 85.333 640 128Q640 170.667 597.333 170.667H85.333Q67.669 170.667 55.168 183.167Q42.668 195.669 42.668 213.3330000000001T55.168 243.4990000000002Q67.668 255.9990000000002 85.333 255.9990000000002H597.333Q725.333 255.9990000000002 725.333 127.9990000000001T597.333 -0.0009999999999Q540.117 -0.0009999999999 501.931 42.6660000000002Q490.156 55.8060000000002 491.137 73.4710000000001Q492.117 91.1350000000001 505.26 102.9110000000002Q518.443 114.6870000000001 536.107 113.7060000000001Q553.727 112.7240000000002 565.504 99.5830000000001zM373.93 725.3340000000001Q412.118 768 469.334 768Q597.3340000000001 768 597.3340000000001 640T469.3340000000001 512H85.3340000000001Q67.6700000000001 512 55.1690000000001 524.5Q42.6690000000001 537.0029999999999 42.6690000000001 554.667T55.1690000000001 584.8320000000001Q67.6690000000001 597.3320000000001 85.3340000000001 597.3320000000001H469.3340000000001Q512 597.3330000000001 512 640Q512 682.667 469.333 682.667Q450.261 682.667 437.503 668.417Q425.728 655.275 408.107 654.293Q390.443 653.313 377.259 665.088Q364.116 676.864 363.135 694.528Q362.1549999999999 712.192 373.93 725.333z" />
    <glyph glyph-name="wind-01"
      unicode="&#xE00E;"
      horiz-adv-x="1024" d="M880.34 600.3199999999999Q831.573 619.563 799.0600000000001 628.736Q702.2080000000001 656.043 525.013 599.381Q323.3280000000001 534.871 201.728 569.174Q165.12 579.5 112.34 600.3199999999999Q95.915 606.8050000000001 88.875 623.02Q81.835 639.232 88.32 655.66Q94.805 672.085 111.02 679.125Q127.232 686.165 143.66 679.68Q192.427 660.437 224.94 651.264Q321.7920000000001 623.957 498.987 680.6189999999999Q700.672 745.1289999999999 822.272 710.826Q858.88 700.5 911.66 679.6800000000001Q928.085 673.1949999999999 935.125 656.98Q942.165 640.768 935.68 624.34Q929.195 607.915 912.98 600.875Q896.7679999999999 593.835 880.3399999999999 600.32zM880.34 88.3199999999999Q831.573 107.563 799.0600000000001 116.693Q702.2080000000001 144.043 525.013 87.381Q323.3280000000001 22.871 201.728 57.174Q165.163 67.5 112.341 88.321Q95.916 94.806 88.876 111.0210000000001Q81.836 127.2330000000001 88.321 143.6610000000001Q94.806 160.086 111.021 167.1260000000001Q127.233 174.1660000000001 143.661 167.6810000000001Q192.471 148.438 224.941 139.308Q321.793 111.958 498.9880000000001 168.62Q700.673 233.13 822.2730000000001 198.827Q858.88 188.5 911.66 167.68Q928.085 161.1949999999999 935.125 144.9799999999999Q942.165 128.7679999999999 935.68 112.3399999999999Q929.195 95.915 912.98 88.8749999999999Q896.7679999999999 81.8349999999999 880.3399999999999 88.3199999999999zM880.34 344.32Q831.573 363.563 799.0600000000001 372.693Q702.2080000000001 400.043 525.013 343.381Q323.3280000000001 278.871 201.728 313.174Q165.163 323.5 112.341 344.3210000000001Q95.916 350.8060000000001 88.876 367.0210000000001Q81.836 383.2330000000001 88.321 399.6610000000001Q94.806 416.0860000000001 111.021 423.1260000000001Q127.233 430.1660000000001 143.661 423.6810000000001Q192.471 404.4380000000001 224.941 395.3080000000001Q321.793 367.9580000000001 498.9880000000001 424.6200000000001Q700.673 489.1300000000001 822.2730000000001 454.8270000000001Q858.88 444.5 911.66 423.68Q928.085 417.195 935.125 400.98Q942.165 384.7680000000001 935.68 368.3400000000001Q929.195 351.9150000000001 912.98 344.875Q896.7679999999999 337.8350000000001 880.3399999999999 344.3200000000001z" />
    <glyph glyph-name="wind-01-1"
      unicode="&#x77;&#x69;&#x6E;&#x64;&#x5F;&#x30;&#x31;"
      horiz-adv-x="1024" d="M880.34 600.3199999999999Q831.573 619.563 799.0600000000001 628.736Q702.2080000000001 656.043 525.013 599.381Q323.3280000000001 534.871 201.728 569.174Q165.12 579.5 112.34 600.3199999999999Q95.915 606.8050000000001 88.875 623.02Q81.835 639.232 88.32 655.66Q94.805 672.085 111.02 679.125Q127.232 686.165 143.66 679.68Q192.427 660.437 224.94 651.264Q321.7920000000001 623.957 498.987 680.6189999999999Q700.672 745.1289999999999 822.272 710.826Q858.88 700.5 911.66 679.6800000000001Q928.085 673.1949999999999 935.125 656.98Q942.165 640.768 935.68 624.34Q929.195 607.915 912.98 600.875Q896.7679999999999 593.835 880.3399999999999 600.32zM880.34 88.3199999999999Q831.573 107.563 799.0600000000001 116.693Q702.2080000000001 144.043 525.013 87.381Q323.3280000000001 22.871 201.728 57.174Q165.163 67.5 112.341 88.321Q95.916 94.806 88.876 111.0210000000001Q81.836 127.2330000000001 88.321 143.6610000000001Q94.806 160.086 111.021 167.1260000000001Q127.233 174.1660000000001 143.661 167.6810000000001Q192.471 148.438 224.941 139.308Q321.793 111.958 498.9880000000001 168.62Q700.673 233.13 822.2730000000001 198.827Q858.88 188.5 911.66 167.68Q928.085 161.1949999999999 935.125 144.9799999999999Q942.165 128.7679999999999 935.68 112.3399999999999Q929.195 95.915 912.98 88.8749999999999Q896.7679999999999 81.8349999999999 880.3399999999999 88.3199999999999zM880.34 344.32Q831.573 363.563 799.0600000000001 372.693Q702.2080000000001 400.043 525.013 343.381Q323.3280000000001 278.871 201.728 313.174Q165.163 323.5 112.341 344.3210000000001Q95.916 350.8060000000001 88.876 367.0210000000001Q81.836 383.2330000000001 88.321 399.6610000000001Q94.806 416.0860000000001 111.021 423.1260000000001Q127.233 430.1660000000001 143.661 423.6810000000001Q192.471 404.4380000000001 224.941 395.3080000000001Q321.793 367.9580000000001 498.9880000000001 424.6200000000001Q700.673 489.1300000000001 822.2730000000001 454.8270000000001Q858.88 444.5 911.66 423.68Q928.085 417.195 935.125 400.98Q942.165 384.7680000000001 935.68 368.3400000000001Q929.195 351.9150000000001 912.98 344.875Q896.7679999999999 337.8350000000001 880.3399999999999 344.3200000000001z" />
    <glyph glyph-name="wifi"
      unicode="&#xE00F;"
      horiz-adv-x="1024" d="M944.256 493.312Q760.876 661.332 512 661.332Q263.083 661.332 79.744 493.312Q66.731 481.365 49.067 482.132Q31.403 482.902 19.457 495.957Q7.509 508.971 8.277 526.635Q9.045 544.299 22.101 556.245Q229.93 746.667 512 746.667Q794.0699999999999 746.667 1001.9 556.245Q1014.912 544.299 1015.68 526.635Q1016.4899999999998 508.971 1004.544 495.957Q992.597 482.901 974.934 482.133Q957.269 481.365 944.256 493.313zM173.696 405.632Q318.636 533.332 512 533.332Q705.365 533.332 850.304 405.632Q863.574 393.984 864.684 376.3200000000001Q865.7919999999999 358.7000000000001 854.101 345.4300000000001Q842.454 332.1600000000001 824.791 331.0500000000001Q807.1690000000001 329.9400000000001 793.9010000000001 341.6320000000001Q673.15 448 512 448T230.1 341.632Q216.832 329.9419999999999 199.21 331.0519999999999Q181.547 332.1599999999999 169.9 345.4289999999999Q158.208 358.6989999999999 159.317 376.3189999999999Q160.427 393.9829999999999 173.697 405.6309999999999zM643.456 189.355Q585.643 234.6670000000001 512 234.6670000000001Q437.163 234.6670000000001 378.88 188.0320000000001Q365.056 177.024 347.52 178.9870000000001Q329.94 180.9070000000001 318.89 194.7310000000001Q307.883 208.5130000000002 309.845 226.0910000000001Q311.765 243.6710000000002 325.589 254.6780000000001Q407.252 320 512 320Q615.125 320 696.107 256.512Q710.0169999999999 245.589 712.149 228.0519999999999Q714.282 210.517 703.359 196.608Q692.479 182.698 674.943 180.565Q657.3629999999999 178.4319999999999 643.4549999999999 189.3549999999999zM512 106.667H512.427Q530.091 106.667 542.592 94.1650000000001Q555.092 81.6650000000001 555.092 64.0000000000001Q555.092 46.3360000000001 542.592 33.8350000000002Q530.092 21.3330000000002 512.427 21.3330000000002H512Q494.336 21.3330000000002 481.835 33.8350000000002Q469.333 46.3350000000002 469.333 64.0000000000001Q469.333 81.6640000000001 481.835 94.1650000000001Q494.335 106.667 512 106.667z" />
    <glyph glyph-name="wifi-1"
      unicode="&#x77;&#x69;&#x66;&#x69;"
      horiz-adv-x="1024" d="M944.256 493.312Q760.876 661.332 512 661.332Q263.083 661.332 79.744 493.312Q66.731 481.365 49.067 482.132Q31.403 482.902 19.457 495.957Q7.509 508.971 8.277 526.635Q9.045 544.299 22.101 556.245Q229.93 746.667 512 746.667Q794.0699999999999 746.667 1001.9 556.245Q1014.912 544.299 1015.68 526.635Q1016.4899999999998 508.971 1004.544 495.957Q992.597 482.901 974.934 482.133Q957.269 481.365 944.256 493.313zM173.696 405.632Q318.636 533.332 512 533.332Q705.365 533.332 850.304 405.632Q863.574 393.984 864.684 376.3200000000001Q865.7919999999999 358.7000000000001 854.101 345.4300000000001Q842.454 332.1600000000001 824.791 331.0500000000001Q807.1690000000001 329.9400000000001 793.9010000000001 341.6320000000001Q673.15 448 512 448T230.1 341.632Q216.832 329.9419999999999 199.21 331.0519999999999Q181.547 332.1599999999999 169.9 345.4289999999999Q158.208 358.6989999999999 159.317 376.3189999999999Q160.427 393.9829999999999 173.697 405.6309999999999zM643.456 189.355Q585.643 234.6670000000001 512 234.6670000000001Q437.163 234.6670000000001 378.88 188.0320000000001Q365.056 177.024 347.52 178.9870000000001Q329.94 180.9070000000001 318.89 194.7310000000001Q307.883 208.5130000000002 309.845 226.0910000000001Q311.765 243.6710000000002 325.589 254.6780000000001Q407.252 320 512 320Q615.125 320 696.107 256.512Q710.0169999999999 245.589 712.149 228.0519999999999Q714.282 210.517 703.359 196.608Q692.479 182.698 674.943 180.565Q657.3629999999999 178.4319999999999 643.4549999999999 189.3549999999999zM512 106.667H512.427Q530.091 106.667 542.592 94.1650000000001Q555.092 81.6650000000001 555.092 64.0000000000001Q555.092 46.3360000000001 542.592 33.8350000000002Q530.092 21.3330000000002 512.427 21.3330000000002H512Q494.336 21.3330000000002 481.835 33.8350000000002Q469.333 46.3350000000002 469.333 64.0000000000001Q469.333 81.6640000000001 481.835 94.1650000000001Q494.335 106.667 512 106.667z" />
    <glyph glyph-name="wifi-off"
      unicode="&#xE010;"
      horiz-adv-x="1024" d="M22.1 556.245Q91.18 619.563 172.93 662.74L97.837 737.835Q85.333 750.335 85.333 768Q85.333 785.664 97.835 798.165Q110.335 810.667 128 810.667Q145.664 810.667 158.165 798.165L444.46 511.872Q445.867 510.592 447.147 509.184L926.165 30.164Q938.667 17.664 938.667 0T926.165 -30.165Q913.665 -42.6669999999999 896 -42.6669999999999Q878.336 -42.6669999999999 865.835 -30.165L651.2650000000001 184.405Q647.2110000000001 186.411 643.4550000000002 189.355Q636.4590000000002 194.8150000000001 629.2480000000002 199.6370000000001Q576.2980000000001 234.624 512.2130000000002 234.624Q444.1600000000002 234.624 388.6510000000002 195.2000000000001Q387.0310000000002 194.048 385.3240000000002 193.024Q382.0810000000002 190.634 378.8810000000002 188.0320000000001Q365.0570000000002 177.024 347.5210000000002 178.9870000000001Q329.9410000000002 180.9070000000001 318.8910000000002 194.7310000000001Q307.8840000000002 208.5130000000002 309.8460000000002 226.0910000000001Q311.7660000000002 243.6710000000002 325.5900000000002 254.6780000000001Q407.252 320 512 320H515.67L401.962 433.707Q305.92 408.405 230.1 341.632Q216.832 329.9419999999999 199.21 331.0519999999999Q181.547 332.1599999999999 169.9 345.4289999999999Q158.208 358.6989999999999 159.317 376.3189999999999Q160.427 393.9829999999999 173.697 405.6309999999999Q246.1 469.42 333.95 501.717L236.457 599.1669999999999Q150.61 558.251 79.741 493.312Q66.728 481.365 49.064 482.1319999999999Q31.4 482.9019999999999 19.454 495.9569999999999Q7.506 508.9709999999999 8.274 526.635Q9.042 544.299 22.098 556.2449999999999zM935.21 501.333Q753.793 661.205 512 661.205Q475.82 661.205 439.8930000000001 657.152Q422.3150000000001 655.147 408.4910000000001 666.155Q394.6680000000001 677.163 392.7050000000001 694.741Q390.7000000000001 712.278 401.7080000000001 726.1010000000001Q412.716 739.926 430.2940000000001 741.931Q470.998 746.541 512.001 746.541Q786.049 746.541 991.617 565.3340000000001Q1004.887 553.644 1005.997 536.022Q1007.105 518.402 995.414 505.1320000000001Q983.724 491.8620000000001 966.102 490.7540000000001Q948.439 489.6440000000001 935.212 501.3340000000001zM665.984 510.08Q763.1790000000001 479.787 841.3870000000001 414.6350000000001Q854.955 403.3280000000001 856.5770000000001 385.749Q858.1550000000001 368.1270000000001 846.8470000000001 354.559Q835.541 340.991 817.9630000000001 339.3689999999999Q800.3410000000001 337.791 786.773 349.099Q721.621 403.3689999999999 640.597 428.5859999999999Q623.744 433.8339999999999 615.509 449.4919999999999Q607.316 465.1519999999999 612.564 482.0039999999999Q617.812 498.8999999999999 633.471 507.0919999999999Q649.131 515.327 665.983 510.079zM512 106.667H512.427Q530.091 106.667 542.592 94.1650000000001Q555.092 81.6650000000001 555.092 64.0000000000001Q555.092 46.3360000000001 542.592 33.8350000000002Q530.092 21.3330000000002 512.427 21.3330000000002H512Q494.336 21.3330000000002 481.835 33.8350000000002Q469.333 46.3350000000002 469.333 64.0000000000001Q469.333 81.6640000000001 481.835 94.1650000000001Q494.335 106.667 512 106.667z" />
    <glyph glyph-name="wifi-off-1"
      unicode="&#x77;&#x69;&#x66;&#x69;&#x5F;&#x6F;&#x66;&#x66;"
      horiz-adv-x="1024" d="M22.1 556.245Q91.18 619.563 172.93 662.74L97.837 737.835Q85.333 750.335 85.333 768Q85.333 785.664 97.835 798.165Q110.335 810.667 128 810.667Q145.664 810.667 158.165 798.165L444.46 511.872Q445.867 510.592 447.147 509.184L926.165 30.164Q938.667 17.664 938.667 0T926.165 -30.165Q913.665 -42.6669999999999 896 -42.6669999999999Q878.336 -42.6669999999999 865.835 -30.165L651.2650000000001 184.405Q647.2110000000001 186.411 643.4550000000002 189.355Q636.4590000000002 194.8150000000001 629.2480000000002 199.6370000000001Q576.2980000000001 234.624 512.2130000000002 234.624Q444.1600000000002 234.624 388.6510000000002 195.2000000000001Q387.0310000000002 194.048 385.3240000000002 193.024Q382.0810000000002 190.634 378.8810000000002 188.0320000000001Q365.0570000000002 177.024 347.5210000000002 178.9870000000001Q329.9410000000002 180.9070000000001 318.8910000000002 194.7310000000001Q307.8840000000002 208.5130000000002 309.8460000000002 226.0910000000001Q311.7660000000002 243.6710000000002 325.5900000000002 254.6780000000001Q407.252 320 512 320H515.67L401.962 433.707Q305.92 408.405 230.1 341.632Q216.832 329.9419999999999 199.21 331.0519999999999Q181.547 332.1599999999999 169.9 345.4289999999999Q158.208 358.6989999999999 159.317 376.3189999999999Q160.427 393.9829999999999 173.697 405.6309999999999Q246.1 469.42 333.95 501.717L236.457 599.1669999999999Q150.61 558.251 79.741 493.312Q66.728 481.365 49.064 482.1319999999999Q31.4 482.9019999999999 19.454 495.9569999999999Q7.506 508.9709999999999 8.274 526.635Q9.042 544.299 22.098 556.2449999999999zM935.21 501.333Q753.793 661.205 512 661.205Q475.82 661.205 439.8930000000001 657.152Q422.3150000000001 655.147 408.4910000000001 666.155Q394.6680000000001 677.163 392.7050000000001 694.741Q390.7000000000001 712.278 401.7080000000001 726.1010000000001Q412.716 739.926 430.2940000000001 741.931Q470.998 746.541 512.001 746.541Q786.049 746.541 991.617 565.3340000000001Q1004.887 553.644 1005.997 536.022Q1007.105 518.402 995.414 505.1320000000001Q983.724 491.8620000000001 966.102 490.7540000000001Q948.439 489.6440000000001 935.212 501.3340000000001zM665.984 510.08Q763.1790000000001 479.787 841.3870000000001 414.6350000000001Q854.955 403.3280000000001 856.5770000000001 385.749Q858.1550000000001 368.1270000000001 846.8470000000001 354.559Q835.541 340.991 817.9630000000001 339.3689999999999Q800.3410000000001 337.791 786.773 349.099Q721.621 403.3689999999999 640.597 428.5859999999999Q623.744 433.8339999999999 615.509 449.4919999999999Q607.316 465.1519999999999 612.564 482.0039999999999Q617.812 498.8999999999999 633.471 507.0919999999999Q649.131 515.327 665.983 510.079zM512 106.667H512.427Q530.091 106.667 542.592 94.1650000000001Q555.092 81.6650000000001 555.092 64.0000000000001Q555.092 46.3360000000001 542.592 33.8350000000002Q530.092 21.3330000000002 512.427 21.3330000000002H512Q494.336 21.3330000000002 481.835 33.8350000000002Q469.333 46.3350000000002 469.333 64.0000000000001Q469.333 81.6640000000001 481.835 94.1650000000001Q494.335 106.667 512 106.667z" />
    <glyph glyph-name="webcam-02"
      unicode="&#xE011;"
      horiz-adv-x="1024" d="M917.333 448Q917.333 280.107 798.635 161.365Q679.893 42.667 512 42.667Q344.107 42.667 225.365 161.365Q106.667 280.107 106.667 448Q106.667 615.893 225.365 734.635Q344.1070000000001 853.333 512 853.333Q679.893 853.333 798.635 734.635Q917.333 615.893 917.333 448zM832 448Q832 580.565 738.26 674.26Q644.566 768 512 768T285.74 674.26Q192 580.566 192 448T285.74 221.74Q379.4340000000001 128 512 128T738.26 221.74Q832 315.434 832 448zM690.688 448Q690.688 373.973 638.336 321.664Q586.0260000000001 269.312 512 269.312Q437.973 269.312 385.664 321.664Q333.312 373.974 333.312 448Q333.355 522.027 385.664 574.336Q437.974 626.646 512 626.688Q586.027 626.688 638.336 574.336Q690.688 522.0260000000001 690.688 448zM341.3330000000001 0H682.667Q700.331 0 712.832 -12.5Q725.332 -25.003 725.332 -42.667T712.832 -72.832Q700.332 -85.332 682.667 -85.332H341.3330000000001Q323.6690000000001 -85.332 311.168 -72.832Q298.668 -60.332 298.668 -42.667Q298.668 -25.003 311.168 -12.501Q323.668 -0.001 341.3330000000001 -0.001zM605.355 448Q605.355 541.355 512 541.355T418.645 448Q418.645 354.645 512 354.645T605.355 448z" />
    <glyph glyph-name="webcam-02-1"
      unicode="&#x77;&#x65;&#x62;&#x63;&#x61;&#x6D;&#x5F;&#x30;&#x32;"
      horiz-adv-x="1024" d="M917.333 448Q917.333 280.107 798.635 161.365Q679.893 42.667 512 42.667Q344.107 42.667 225.365 161.365Q106.667 280.107 106.667 448Q106.667 615.893 225.365 734.635Q344.1070000000001 853.333 512 853.333Q679.893 853.333 798.635 734.635Q917.333 615.893 917.333 448zM832 448Q832 580.565 738.26 674.26Q644.566 768 512 768T285.74 674.26Q192 580.566 192 448T285.74 221.74Q379.4340000000001 128 512 128T738.26 221.74Q832 315.434 832 448zM690.688 448Q690.688 373.973 638.336 321.664Q586.0260000000001 269.312 512 269.312Q437.973 269.312 385.664 321.664Q333.312 373.974 333.312 448Q333.355 522.027 385.664 574.336Q437.974 626.646 512 626.688Q586.027 626.688 638.336 574.336Q690.688 522.0260000000001 690.688 448zM341.3330000000001 0H682.667Q700.331 0 712.832 -12.5Q725.332 -25.003 725.332 -42.667T712.832 -72.832Q700.332 -85.332 682.667 -85.332H341.3330000000001Q323.6690000000001 -85.332 311.168 -72.832Q298.668 -60.332 298.668 -42.667Q298.668 -25.003 311.168 -12.501Q323.668 -0.001 341.3330000000001 -0.001zM605.355 448Q605.355 541.355 512 541.355T418.645 448Q418.645 354.645 512 354.645T605.355 448z" />
    <glyph glyph-name="webcam-01"
      unicode="&#xE012;"
      horiz-adv-x="1024" d="M554.667 87.424V0H725.3330000000001Q742.9970000000001 0 755.4990000000001 -12.5Q767.9990000000001 -25.003 767.9990000000001 -42.667T755.4990000000001 -72.832Q742.9960000000001 -85.332 725.3320000000001 -85.332H298.667Q281.003 -85.332 268.501 -72.832Q256.001 -60.332 256.001 -42.667Q256.001 -25.003 268.501 -12.501Q281.004 -0.001 298.668 -0.001H469.334V87.423Q337.5370000000001 100.735 240.47 197.803Q128 310.27 128 469.333Q128 628.393 240.47 740.863Q352.94 853.3340000000001 512 853.3340000000001Q671.06 853.3340000000001 783.53 740.864Q896 628.394 896 469.334Q896 310.272 783.53 197.8040000000001Q686.4639999999999 100.7360000000001 554.6669999999999 87.4240000000001zM512 170.667Q635.733 170.667 723.2 258.1330000000001Q810.667 345.6 810.667 469.333Q810.667 593.023 723.2 680.533Q635.733 768 512 768Q388.31 768 300.8 680.533Q213.333 593.023 213.333 469.333Q213.333 345.6 300.8 258.1330000000001Q388.267 170.667 512 170.667zM682.667 469.333Q682.667 298.6670000000001 512 298.6670000000001T341.3330000000001 469.333Q341.3330000000001 640 512 640T682.667 469.333zM597.3330000000001 469.333Q597.3330000000001 554.667 512.0000000000001 554.667T426.6670000000002 469.333Q426.667 384 512 384T597.333 469.333z" />
    <glyph glyph-name="webcam-01-1"
      unicode="&#x77;&#x65;&#x62;&#x63;&#x61;&#x6D;&#x5F;&#x30;&#x31;"
      horiz-adv-x="1024" d="M554.667 87.424V0H725.3330000000001Q742.9970000000001 0 755.4990000000001 -12.5Q767.9990000000001 -25.003 767.9990000000001 -42.667T755.4990000000001 -72.832Q742.9960000000001 -85.332 725.3320000000001 -85.332H298.667Q281.003 -85.332 268.501 -72.832Q256.001 -60.332 256.001 -42.667Q256.001 -25.003 268.501 -12.501Q281.004 -0.001 298.668 -0.001H469.334V87.423Q337.5370000000001 100.735 240.47 197.803Q128 310.27 128 469.333Q128 628.393 240.47 740.863Q352.94 853.3340000000001 512 853.3340000000001Q671.06 853.3340000000001 783.53 740.864Q896 628.394 896 469.334Q896 310.272 783.53 197.8040000000001Q686.4639999999999 100.7360000000001 554.6669999999999 87.4240000000001zM512 170.667Q635.733 170.667 723.2 258.1330000000001Q810.667 345.6 810.667 469.333Q810.667 593.023 723.2 680.533Q635.733 768 512 768Q388.31 768 300.8 680.533Q213.333 593.023 213.333 469.333Q213.333 345.6 300.8 258.1330000000001Q388.267 170.667 512 170.667zM682.667 469.333Q682.667 298.6670000000001 512 298.6670000000001T341.3330000000001 469.333Q341.3330000000001 640 512 640T682.667 469.333zM597.3330000000001 469.333Q597.3330000000001 554.667 512.0000000000001 554.667T426.6670000000002 469.333Q426.667 384 512 384T597.333 469.333z" />
    <glyph glyph-name="waves"
      unicode="&#xE013;"
      horiz-adv-x="1024" d="M112.64 416.768Q151.98 384 192 384Q230.357 384 272 417.323Q337.024 469.333 405.333 469.333Q476.245 469.333 539.307 416.768Q578.645 384 618.667 384Q657.024 384 698.667 417.323Q763.691 469.333 832 469.333Q902.912 469.333 965.973 416.768Q979.541 405.461 981.163 387.883Q982.741 370.261 971.435 356.693Q960.128 343.125 942.549 341.503Q924.9270000000002 339.925 911.359 351.233Q872.02 384 832 384Q793.643 384 752 350.677Q686.976 298.6670000000001 618.667 298.6670000000001Q547.755 298.6670000000001 484.693 351.232Q445.355 384 405.3330000000001 384Q366.976 384 325.3330000000001 350.677Q260.3090000000001 298.6670000000001 192 298.6670000000001Q121.088 298.6670000000001 58.027 351.232Q44.459 362.539 42.837 380.117Q41.259 397.739 52.565 411.307Q63.872 424.875 81.451 426.497Q99.073 428.075 112.641 416.767zM112.64 672.768Q151.98 640 192 640Q230.357 640 272 673.323Q337.024 725.333 405.333 725.333Q476.245 725.333 539.307 672.768Q578.645 640 618.667 640Q657.024 640 698.667 673.323Q763.691 725.333 832 725.333Q902.912 725.333 965.973 672.768Q979.541 661.461 981.163 643.883Q982.741 626.261 971.435 612.693Q960.128 599.125 942.549 597.5029999999999Q924.9270000000002 595.925 911.359 607.233Q872.02 640 832 640Q793.643 640 752 606.677Q686.976 554.667 618.667 554.667Q547.755 554.667 484.693 607.232Q445.355 640 405.3330000000001 640Q366.976 640 325.3330000000001 606.677Q260.3090000000001 554.667 192 554.667Q121.088 554.667 58.027 607.232Q44.459 618.539 42.837 636.117Q41.259 653.739 52.565 667.307Q63.872 680.875 81.451 682.4970000000001Q99.073 684.075 112.641 672.767zM112.64 160.768Q151.98 128 192 128Q230.357 128 272 161.323Q337.024 213.333 405.333 213.333Q476.245 213.333 539.307 160.768Q578.645 128 618.667 128Q657.024 128 698.667 161.323Q763.691 213.333 832 213.333Q902.912 213.333 965.973 160.768Q979.541 149.461 981.163 131.8830000000001Q982.741 114.2610000000001 971.435 100.693Q960.128 87.125 942.549 85.5029999999999Q924.9270000000002 83.925 911.359 95.233Q872.02 128 832 128Q793.643 128 752 94.677Q686.976 42.667 618.667 42.667Q547.755 42.667 484.693 95.232Q445.355 128 405.3330000000001 128Q366.976 128 325.3330000000001 94.677Q260.3090000000001 42.667 192 42.667Q121.088 42.667 58.027 95.232Q44.459 106.539 42.837 124.117Q41.259 141.7389999999999 52.565 155.307Q63.872 168.875 81.451 170.4970000000001Q99.073 172.0750000000001 112.641 160.7670000000001z" />
    <glyph glyph-name="waves-1"
      unicode="&#x77;&#x61;&#x76;&#x65;&#x73;"
      horiz-adv-x="1024" d="M112.64 416.768Q151.98 384 192 384Q230.357 384 272 417.323Q337.024 469.333 405.333 469.333Q476.245 469.333 539.307 416.768Q578.645 384 618.667 384Q657.024 384 698.667 417.323Q763.691 469.333 832 469.333Q902.912 469.333 965.973 416.768Q979.541 405.461 981.163 387.883Q982.741 370.261 971.435 356.693Q960.128 343.125 942.549 341.503Q924.9270000000002 339.925 911.359 351.233Q872.02 384 832 384Q793.643 384 752 350.677Q686.976 298.6670000000001 618.667 298.6670000000001Q547.755 298.6670000000001 484.693 351.232Q445.355 384 405.3330000000001 384Q366.976 384 325.3330000000001 350.677Q260.3090000000001 298.6670000000001 192 298.6670000000001Q121.088 298.6670000000001 58.027 351.232Q44.459 362.539 42.837 380.117Q41.259 397.739 52.565 411.307Q63.872 424.875 81.451 426.497Q99.073 428.075 112.641 416.767zM112.64 672.768Q151.98 640 192 640Q230.357 640 272 673.323Q337.024 725.333 405.333 725.333Q476.245 725.333 539.307 672.768Q578.645 640 618.667 640Q657.024 640 698.667 673.323Q763.691 725.333 832 725.333Q902.912 725.333 965.973 672.768Q979.541 661.461 981.163 643.883Q982.741 626.261 971.435 612.693Q960.128 599.125 942.549 597.5029999999999Q924.9270000000002 595.925 911.359 607.233Q872.02 640 832 640Q793.643 640 752 606.677Q686.976 554.667 618.667 554.667Q547.755 554.667 484.693 607.232Q445.355 640 405.3330000000001 640Q366.976 640 325.3330000000001 606.677Q260.3090000000001 554.667 192 554.667Q121.088 554.667 58.027 607.232Q44.459 618.539 42.837 636.117Q41.259 653.739 52.565 667.307Q63.872 680.875 81.451 682.4970000000001Q99.073 684.075 112.641 672.767zM112.64 160.768Q151.98 128 192 128Q230.357 128 272 161.323Q337.024 213.333 405.333 213.333Q476.245 213.333 539.307 160.768Q578.645 128 618.667 128Q657.024 128 698.667 161.323Q763.691 213.333 832 213.333Q902.912 213.333 965.973 160.768Q979.541 149.461 981.163 131.8830000000001Q982.741 114.2610000000001 971.435 100.693Q960.128 87.125 942.549 85.5029999999999Q924.9270000000002 83.925 911.359 95.233Q872.02 128 832 128Q793.643 128 752 94.677Q686.976 42.667 618.667 42.667Q547.755 42.667 484.693 95.232Q445.355 128 405.3330000000001 128Q366.976 128 325.3330000000001 94.677Q260.3090000000001 42.667 192 42.667Q121.088 42.667 58.027 95.232Q44.459 106.539 42.837 124.117Q41.259 141.7389999999999 52.565 155.307Q63.872 168.875 81.451 170.4970000000001Q99.073 172.0750000000001 112.641 160.7670000000001z" />
    <glyph glyph-name="watch-square"
      unicode="&#xE014;"
      horiz-adv-x="1024" d="M761.387 690.39Q761.771 690.22 762.112 690.048Q799.189 671.1479999999999 818.048 634.112Q832 606.72 832 524.8V243.2000000000001Q832 161.2800000000001 818.048 133.888Q799.188 96.811 762.112 77.952Q761.7719999999999 77.782 761.387 77.612L752 44.628L751.957 44.585Q734.4639999999999 -16.6849999999999 718.933 -36.439Q698.027 -63.021 666.709 -75.8209999999999Q643.4119999999999 -85.3339999999999 579.669 -85.3339999999999H444.33Q380.587 -85.3339999999999 357.29 -75.8199999999999Q325.973 -63.0599999999999 305.067 -36.4369999999999Q289.537 -16.64 272 44.63L262.613 77.61Q262.229 77.78 261.888 77.952Q224.853 96.812 205.952 133.888Q192 161.28 192 243.2000000000001V524.8Q192 606.72 205.952 634.1120000000001Q224.812 671.1890000000001 261.888 690.048Q262.228 690.2180000000001 262.613 690.388L272 723.3720000000001Q289.536 784.642 305.067 804.439Q325.973 831.02 357.29 843.82Q380.5870000000001 853.333 444.3300000000001 853.333H579.6700000000001Q643.4130000000001 853.333 666.71 843.819Q698.027 831.019 718.933 804.436Q734.463 784.682 751.957 723.412L752 723.37L761.387 690.39zM371.2 149.332H652.8Q714.24 149.332 723.3699999999999 153.982Q735.7439999999999 160.255 742.0159999999998 172.6279999999999Q746.6659999999998 181.7579999999999 746.6659999999998 243.1979999999999V524.8Q746.6659999999998 586.24 742.0159999999998 595.37Q735.7439999999998 607.7 723.3709999999999 614.0160000000001Q714.2409999999999 618.6659999999999 652.8009999999999 618.6659999999999H371.2Q309.76 618.6659999999999 300.63 614.0160000000001Q288.3 607.701 281.984 595.3710000000001Q277.334 586.241 277.334 524.801V243.201Q277.334 181.761 281.984 172.6310000000001Q288.299 160.2570000000001 300.629 153.9850000000001Q309.759 149.3350000000002 371.199 149.3350000000002zM554.667 512V401.664L606.1650000000001 350.164Q618.667 337.664 618.667 320T606.1650000000001 289.8350000000001Q593.6650000000001 277.3330000000001 576.0000000000001 277.3330000000001Q558.3360000000001 277.3330000000001 545.8350000000002 289.8350000000001L481.8350000000002 353.8350000000001Q469.3330000000001 366.3350000000001 469.3330000000001 384.0000000000001V512Q469.3330000000001 529.664 481.8350000000002 542.165Q494.3350000000002 554.667 512.0000000000001 554.667Q529.6640000000001 554.667 542.1650000000001 542.165Q554.667 529.665 554.667 512zM355.2 703.8720000000001Q362.923 704 371.2 704H652.8Q661.077 704 668.8 703.8720000000001Q656.81 745.387 651.8599999999999 751.702Q644.8639999999999 760.576 634.4529999999999 764.842Q626.688 768 579.67 768H444.33Q397.312 768 389.547 764.843Q379.137 760.576 372.139 751.701Q367.189 745.388 355.199 703.873zM371.2 64Q362.923 64 355.2 64.128Q367.19 22.6130000000001 372.14 16.298Q379.136 7.424 389.59 3.158Q397.31 0 444.33 0H579.67Q626.688 0 634.453 3.157Q644.8629999999999 7.4240000000001 651.861 16.2990000000001Q656.811 22.6120000000001 668.801 64.1270000000001Q661.0780000000001 63.999 652.801 63.999z" />
    <glyph glyph-name="watch-square-1"
      unicode="&#x77;&#x61;&#x74;&#x63;&#x68;&#x5F;&#x73;&#x71;&#x75;&#x61;&#x72;&#x65;"
      horiz-adv-x="1024" d="M761.387 690.39Q761.771 690.22 762.112 690.048Q799.189 671.1479999999999 818.048 634.112Q832 606.72 832 524.8V243.2000000000001Q832 161.2800000000001 818.048 133.888Q799.188 96.811 762.112 77.952Q761.7719999999999 77.782 761.387 77.612L752 44.628L751.957 44.585Q734.4639999999999 -16.6849999999999 718.933 -36.439Q698.027 -63.021 666.709 -75.8209999999999Q643.4119999999999 -85.3339999999999 579.669 -85.3339999999999H444.33Q380.587 -85.3339999999999 357.29 -75.8199999999999Q325.973 -63.0599999999999 305.067 -36.4369999999999Q289.537 -16.64 272 44.63L262.613 77.61Q262.229 77.78 261.888 77.952Q224.853 96.812 205.952 133.888Q192 161.28 192 243.2000000000001V524.8Q192 606.72 205.952 634.1120000000001Q224.812 671.1890000000001 261.888 690.048Q262.228 690.2180000000001 262.613 690.388L272 723.3720000000001Q289.536 784.642 305.067 804.439Q325.973 831.02 357.29 843.82Q380.5870000000001 853.333 444.3300000000001 853.333H579.6700000000001Q643.4130000000001 853.333 666.71 843.819Q698.027 831.019 718.933 804.436Q734.463 784.682 751.957 723.412L752 723.37L761.387 690.39zM371.2 149.332H652.8Q714.24 149.332 723.3699999999999 153.982Q735.7439999999999 160.255 742.0159999999998 172.6279999999999Q746.6659999999998 181.7579999999999 746.6659999999998 243.1979999999999V524.8Q746.6659999999998 586.24 742.0159999999998 595.37Q735.7439999999998 607.7 723.3709999999999 614.0160000000001Q714.2409999999999 618.6659999999999 652.8009999999999 618.6659999999999H371.2Q309.76 618.6659999999999 300.63 614.0160000000001Q288.3 607.701 281.984 595.3710000000001Q277.334 586.241 277.334 524.801V243.201Q277.334 181.761 281.984 172.6310000000001Q288.299 160.2570000000001 300.629 153.9850000000001Q309.759 149.3350000000002 371.199 149.3350000000002zM554.667 512V401.664L606.1650000000001 350.164Q618.667 337.664 618.667 320T606.1650000000001 289.8350000000001Q593.6650000000001 277.3330000000001 576.0000000000001 277.3330000000001Q558.3360000000001 277.3330000000001 545.8350000000002 289.8350000000001L481.8350000000002 353.8350000000001Q469.3330000000001 366.3350000000001 469.3330000000001 384.0000000000001V512Q469.3330000000001 529.664 481.8350000000002 542.165Q494.3350000000002 554.667 512.0000000000001 554.667Q529.6640000000001 554.667 542.1650000000001 542.165Q554.667 529.665 554.667 512zM355.2 703.8720000000001Q362.923 704 371.2 704H652.8Q661.077 704 668.8 703.8720000000001Q656.81 745.387 651.8599999999999 751.702Q644.8639999999999 760.576 634.4529999999999 764.842Q626.688 768 579.67 768H444.33Q397.312 768 389.547 764.843Q379.137 760.576 372.139 751.701Q367.189 745.388 355.199 703.873zM371.2 64Q362.923 64 355.2 64.128Q367.19 22.6130000000001 372.14 16.298Q379.136 7.424 389.59 3.158Q397.31 0 444.33 0H579.67Q626.688 0 634.453 3.157Q644.8629999999999 7.4240000000001 651.861 16.2990000000001Q656.811 22.6120000000001 668.801 64.1270000000001Q661.0780000000001 63.999 652.801 63.999z" />
    <glyph glyph-name="watch-circle"
      unicode="&#xE015;"
      horiz-adv-x="1024" d="M853.333 384Q853.333 251.733 765.867 155.733L746.453 58.709V58.6659999999999Q732.971 -8.662 717.653 -30.594Q697.003 -60.1610000000001 663.979 -74.624Q639.4440000000001 -85.3340000000001 570.7510000000001 -85.3340000000001H453.248Q384.555 -85.3340000000001 360.021 -74.624Q326.998 -60.1610000000001 306.348 -30.594Q291.03 -8.662 277.548 58.708L258.134 155.731Q170.668 251.731 170.668 383.9980000000001T258.134 612.2650000000001L277.548 709.289Q291.03 776.6590000000001 306.348 798.591Q326.998 828.1590000000001 360.022 842.623Q384.557 853.3330000000001 453.2499999999999 853.3330000000001H570.7539999999999Q639.4469999999999 853.3330000000001 663.9809999999999 842.623Q697.0039999999999 828.1590000000001 717.6539999999999 798.591Q732.9719999999999 776.6610000000001 746.4539999999998 709.331V709.291L765.8679999999998 612.2660000000001Q853.3339999999998 516.2660000000001 853.3339999999998 383.999zM768 384Q768 490.027 693.035 565.035Q618.027 640 512 640T330.9650000000001 565.035Q256 490.027 256 384T330.9650000000001 202.965Q405.973 128 512 128T693.035 202.965Q768 277.973 768 384zM554.667 512V401.664L606.1650000000001 350.164Q618.667 337.664 618.667 320T606.1650000000001 289.8350000000001Q593.6650000000001 277.3330000000001 576.0000000000001 277.3330000000001Q558.3360000000001 277.3330000000001 545.8350000000002 289.8350000000001L481.8350000000002 353.8350000000001Q469.3330000000001 366.3350000000001 469.3330000000001 384.0000000000001V512Q469.3330000000001 529.664 481.8350000000002 542.165Q494.3350000000002 554.667 512.0000000000001 554.667Q529.6640000000001 554.667 542.1650000000001 542.165Q554.667 529.665 554.667 512zM360.96 691.2429999999999Q429.397 725.333 512 725.333T663.04 691.2429999999999L662.784 692.523V692.565Q652.8 742.443 647.68 749.739Q640.81 759.594 629.803 764.415Q621.61 768 570.753 768H453.247Q402.387 768 394.197 764.4159999999999Q383.187 759.596 376.319 749.739Q371.199 742.442 361.2150000000001 692.5640000000001V692.522L360.9590000000001 691.242zM360.96 76.7570000000001L361.216 75.4770000000001V75.4350000000001Q371.2 25.557 376.32 18.2610000000001Q383.19 8.4060000000001 394.197 3.585Q402.39 0 453.247 0H570.752Q621.612 0 629.8019999999999 3.5839999999999Q640.8119999999999 8.404 647.68 18.261Q652.8 25.558 662.784 75.4359999999999V75.478L663.04 76.7579999999999Q594.603 42.6679999999999 512 42.6679999999999T360.9600000000001 76.7579999999999z" />
    <glyph glyph-name="watch-circle-1"
      unicode="&#x77;&#x61;&#x74;&#x63;&#x68;&#x5F;&#x63;&#x69;&#x72;&#x63;&#x6C;&#x65;"
      horiz-adv-x="1024" d="M853.333 384Q853.333 251.733 765.867 155.733L746.453 58.709V58.6659999999999Q732.971 -8.662 717.653 -30.594Q697.003 -60.1610000000001 663.979 -74.624Q639.4440000000001 -85.3340000000001 570.7510000000001 -85.3340000000001H453.248Q384.555 -85.3340000000001 360.021 -74.624Q326.998 -60.1610000000001 306.348 -30.594Q291.03 -8.662 277.548 58.708L258.134 155.731Q170.668 251.731 170.668 383.9980000000001T258.134 612.2650000000001L277.548 709.289Q291.03 776.6590000000001 306.348 798.591Q326.998 828.1590000000001 360.022 842.623Q384.557 853.3330000000001 453.2499999999999 853.3330000000001H570.7539999999999Q639.4469999999999 853.3330000000001 663.9809999999999 842.623Q697.0039999999999 828.1590000000001 717.6539999999999 798.591Q732.9719999999999 776.6610000000001 746.4539999999998 709.331V709.291L765.8679999999998 612.2660000000001Q853.3339999999998 516.2660000000001 853.3339999999998 383.999zM768 384Q768 490.027 693.035 565.035Q618.027 640 512 640T330.9650000000001 565.035Q256 490.027 256 384T330.9650000000001 202.965Q405.973 128 512 128T693.035 202.965Q768 277.973 768 384zM554.667 512V401.664L606.1650000000001 350.164Q618.667 337.664 618.667 320T606.1650000000001 289.8350000000001Q593.6650000000001 277.3330000000001 576.0000000000001 277.3330000000001Q558.3360000000001 277.3330000000001 545.8350000000002 289.8350000000001L481.8350000000002 353.8350000000001Q469.3330000000001 366.3350000000001 469.3330000000001 384.0000000000001V512Q469.3330000000001 529.664 481.8350000000002 542.165Q494.3350000000002 554.667 512.0000000000001 554.667Q529.6640000000001 554.667 542.1650000000001 542.165Q554.667 529.665 554.667 512zM360.96 691.2429999999999Q429.397 725.333 512 725.333T663.04 691.2429999999999L662.784 692.523V692.565Q652.8 742.443 647.68 749.739Q640.81 759.594 629.803 764.415Q621.61 768 570.753 768H453.247Q402.387 768 394.197 764.4159999999999Q383.187 759.596 376.319 749.739Q371.199 742.442 361.2150000000001 692.5640000000001V692.522L360.9590000000001 691.242zM360.96 76.7570000000001L361.216 75.4770000000001V75.4350000000001Q371.2 25.557 376.32 18.2610000000001Q383.19 8.4060000000001 394.197 3.585Q402.39 0 453.247 0H570.752Q621.612 0 629.8019999999999 3.5839999999999Q640.8119999999999 8.404 647.68 18.261Q652.8 25.558 662.784 75.4359999999999V75.478L663.04 76.7579999999999Q594.603 42.6679999999999 512 42.6679999999999T360.9600000000001 76.7579999999999z" />
    <glyph glyph-name="wallet-05"
      unicode="&#xE016;"
      horiz-adv-x="1024" d="M241.62 660.95Q234.667 681.0029999999999 234.667 704Q234.667 756.78 271.445 794.24Q308.523 832 361.13 832Q460.29 832 512 745.216Q563.712 832 662.87 832Q715.477 832 752.5550000000001 794.24Q789.3330000000001 756.78 789.3330000000001 704Q789.3330000000001 681.0029999999999 782.3790000000001 660.95Q824.7460000000001 659.072 841.7270000000001 648.533Q869.844 631.125 878.8470000000001 599.296Q885.503 575.9159999999999 869.503 519.9359999999999L856.788 475.392L926.803 358.742Q956.371 309.419 962.558 288.0849999999999Q970.835 259.541 968.958 229.8449999999999Q967.55 207.7009999999999 949.374 153.1729999999999V153.1309999999999L940.499 126.5509999999998Q912.767 43.3509999999998 891.989 18.5179999999998Q864.042 -14.8900000000002 823.551 -30.8040000000002Q793.428 -42.6660000000002 705.706 -42.6660000000002H318.293Q230.5710000000001 -42.6660000000002 200.448 -30.8040000000002Q159.958 -14.8900000000002 132.011 18.5179999999998Q111.233 43.35 83.5 126.55L74.624 153.13V153.173Q56.448 207.7000000000001 55.04 229.8450000000001Q53.163 259.5410000000001 61.44 288.0850000000001Q67.627 309.419 97.195 358.741L167.211 475.393L154.497 519.9369999999999Q138.497 575.9169999999999 145.153 599.297Q154.156 631.127 182.273 648.534Q199.253 659.074 241.623 660.9499999999999zM237.483 426.6670000000001L170.368 314.837Q146.518 275.029 143.403 264.363Q139.263 250.069 140.203 235.2629999999999Q140.928 224.1709999999999 155.605 180.1389999999999L164.48 153.5139999999999Q187.093 85.6739999999999 197.46 73.2579999999999Q211.413 56.574 231.68 48.5949999999999Q246.74 42.665 318.293 42.665H705.707Q777.259 42.665 792.3199999999999 48.5949999999999Q812.587 56.5749999999999 826.54 73.257Q836.9069999999999 85.6719999999999 859.52 153.512L868.395 180.136V180.1759999999999Q883.072 224.166 883.797 235.26Q884.7370000000001 250.065 880.597 264.36Q877.483 275.025 853.632 314.833L786.5169999999999 426.663H237.483zM361.13 576H261.163Q236.203 576 229.12 575.36L227.243 576L236.543 543.36L245.503 512H778.4960000000001L787.4560000000001 543.36L796.7560000000001 576L794.8800000000001 575.36Q787.7970000000001 576 762.8370000000001 576H361.13zM567.424 661.333H662.8689999999999Q679.6789999999999 661.333 691.6689999999999 673.579Q704 686.08 704 704T691.67 734.4200000000001Q679.68 746.667 662.87 746.667Q597.76 746.667 567.424 661.3330000000001zM361.131 661.333H456.577Q426.241 746.667 361.132 746.667Q344.322 746.667 332.332 734.4639999999999Q320 721.877 320 704T332.33 673.5360000000001Q344.32 661.333 361.13 661.333z" />
    <glyph glyph-name="wallet-05-1"
      unicode="&#x77;&#x61;&#x6C;&#x6C;&#x65;&#x74;&#x5F;&#x30;&#x35;"
      horiz-adv-x="1024" d="M241.62 660.95Q234.667 681.0029999999999 234.667 704Q234.667 756.78 271.445 794.24Q308.523 832 361.13 832Q460.29 832 512 745.216Q563.712 832 662.87 832Q715.477 832 752.5550000000001 794.24Q789.3330000000001 756.78 789.3330000000001 704Q789.3330000000001 681.0029999999999 782.3790000000001 660.95Q824.7460000000001 659.072 841.7270000000001 648.533Q869.844 631.125 878.8470000000001 599.296Q885.503 575.9159999999999 869.503 519.9359999999999L856.788 475.392L926.803 358.742Q956.371 309.419 962.558 288.0849999999999Q970.835 259.541 968.958 229.8449999999999Q967.55 207.7009999999999 949.374 153.1729999999999V153.1309999999999L940.499 126.5509999999998Q912.767 43.3509999999998 891.989 18.5179999999998Q864.042 -14.8900000000002 823.551 -30.8040000000002Q793.428 -42.6660000000002 705.706 -42.6660000000002H318.293Q230.5710000000001 -42.6660000000002 200.448 -30.8040000000002Q159.958 -14.8900000000002 132.011 18.5179999999998Q111.233 43.35 83.5 126.55L74.624 153.13V153.173Q56.448 207.7000000000001 55.04 229.8450000000001Q53.163 259.5410000000001 61.44 288.0850000000001Q67.627 309.419 97.195 358.741L167.211 475.393L154.497 519.9369999999999Q138.497 575.9169999999999 145.153 599.297Q154.156 631.127 182.273 648.534Q199.253 659.074 241.623 660.9499999999999zM237.483 426.6670000000001L170.368 314.837Q146.518 275.029 143.403 264.363Q139.263 250.069 140.203 235.2629999999999Q140.928 224.1709999999999 155.605 180.1389999999999L164.48 153.5139999999999Q187.093 85.6739999999999 197.46 73.2579999999999Q211.413 56.574 231.68 48.5949999999999Q246.74 42.665 318.293 42.665H705.707Q777.259 42.665 792.3199999999999 48.5949999999999Q812.587 56.5749999999999 826.54 73.257Q836.9069999999999 85.6719999999999 859.52 153.512L868.395 180.136V180.1759999999999Q883.072 224.166 883.797 235.26Q884.7370000000001 250.065 880.597 264.36Q877.483 275.025 853.632 314.833L786.5169999999999 426.663H237.483zM361.13 576H261.163Q236.203 576 229.12 575.36L227.243 576L236.543 543.36L245.503 512H778.4960000000001L787.4560000000001 543.36L796.7560000000001 576L794.8800000000001 575.36Q787.7970000000001 576 762.8370000000001 576H361.13zM567.424 661.333H662.8689999999999Q679.6789999999999 661.333 691.6689999999999 673.579Q704 686.08 704 704T691.67 734.4200000000001Q679.68 746.667 662.87 746.667Q597.76 746.667 567.424 661.3330000000001zM361.131 661.333H456.577Q426.241 746.667 361.132 746.667Q344.322 746.667 332.332 734.4639999999999Q320 721.877 320 704T332.33 673.5360000000001Q344.32 661.333 361.13 661.333z" />
    <glyph glyph-name="wallet-04"
      unicode="&#xE017;"
      horiz-adv-x="1024" d="M896 526.38Q964.053 504.917 978.86 430.293Q981.333 417.92 981.333 384T978.859 337.707Q964.052 263.083 896 241.62V179.2000000000001Q896 97.2800000000001 882.048 69.888Q863.188 32.811 826.112 13.952Q798.72 0 716.8 0H221.867Q139.947 0 112.555 13.952Q75.52 32.812 56.619 69.888Q42.666 97.28 42.666 179.2000000000001V588.8Q42.666 670.72 56.618 698.1120000000001Q75.475 735.147 112.553 754.048Q139.947 768 221.867 768H716.8Q798.7199999999999 768 826.112 754.048Q863.189 735.148 882.048 698.112Q896 670.72 896 588.8V526.38zM597.333 384Q597.333 417.92 599.808 430.293Q616.491 514.1759999999999 700.373 530.859Q712.7470000000001 533.3320000000001 746.667 533.3320000000001H810.667V588.8Q810.667 650.24 806.017 659.37Q799.744 671.7 787.3710000000001 678.0160000000001Q778.2410000000001 682.666 716.8010000000002 682.666H221.867Q160.427 682.666 151.297 678.0160000000001Q138.923 671.701 132.651 659.371Q128.001 650.241 128.001 588.801V179.201Q128.001 117.761 132.651 108.6310000000001Q138.966 96.2570000000001 151.297 89.9850000000001Q160.427 85.3350000000002 221.867 85.3350000000002H716.8Q778.24 85.3350000000002 787.3699999999999 89.9850000000001Q799.7439999999999 96.2570000000002 806.0159999999998 108.6300000000001Q810.6659999999998 117.7600000000001 810.6659999999998 179.2000000000001V234.6670000000001H746.6659999999998Q712.7459999999999 234.6670000000001 700.3729999999998 237.1410000000001Q616.4909999999998 253.8250000000001 599.8079999999998 337.7080000000001Q597.3329999999997 350.0810000000002 597.3329999999997 384.0010000000001zM682.6669999999999 384Q682.6669999999999 358.443 683.4769999999999 354.347Q689.0669999999999 326.4 717.0129999999999 320.8109999999999Q721.1089999999999 320.001 746.6669999999999 320.001H832Q857.557 320.001 861.653 320.8109999999999Q889.6 326.401 895.1890000000001 354.348Q895.999 358.444 895.999 384.001T895.1890000000001 413.654Q889.599 441.601 861.652 447.19Q857.557 448 832 448H746.667Q721.109 448 717.013 447.19Q689.067 441.6 683.4770000000001 413.653Q682.6670000000001 409.557 682.6670000000001 384z" />
    <glyph glyph-name="wallet-04-1"
      unicode="&#x77;&#x61;&#x6C;&#x6C;&#x65;&#x74;&#x5F;&#x30;&#x34;"
      horiz-adv-x="1024" d="M896 526.38Q964.053 504.917 978.86 430.293Q981.333 417.92 981.333 384T978.859 337.707Q964.052 263.083 896 241.62V179.2000000000001Q896 97.2800000000001 882.048 69.888Q863.188 32.811 826.112 13.952Q798.72 0 716.8 0H221.867Q139.947 0 112.555 13.952Q75.52 32.812 56.619 69.888Q42.666 97.28 42.666 179.2000000000001V588.8Q42.666 670.72 56.618 698.1120000000001Q75.475 735.147 112.553 754.048Q139.947 768 221.867 768H716.8Q798.7199999999999 768 826.112 754.048Q863.189 735.148 882.048 698.112Q896 670.72 896 588.8V526.38zM597.333 384Q597.333 417.92 599.808 430.293Q616.491 514.1759999999999 700.373 530.859Q712.7470000000001 533.3320000000001 746.667 533.3320000000001H810.667V588.8Q810.667 650.24 806.017 659.37Q799.744 671.7 787.3710000000001 678.0160000000001Q778.2410000000001 682.666 716.8010000000002 682.666H221.867Q160.427 682.666 151.297 678.0160000000001Q138.923 671.701 132.651 659.371Q128.001 650.241 128.001 588.801V179.201Q128.001 117.761 132.651 108.6310000000001Q138.966 96.2570000000001 151.297 89.9850000000001Q160.427 85.3350000000002 221.867 85.3350000000002H716.8Q778.24 85.3350000000002 787.3699999999999 89.9850000000001Q799.7439999999999 96.2570000000002 806.0159999999998 108.6300000000001Q810.6659999999998 117.7600000000001 810.6659999999998 179.2000000000001V234.6670000000001H746.6659999999998Q712.7459999999999 234.6670000000001 700.3729999999998 237.1410000000001Q616.4909999999998 253.8250000000001 599.8079999999998 337.7080000000001Q597.3329999999997 350.0810000000002 597.3329999999997 384.0010000000001zM682.6669999999999 384Q682.6669999999999 358.443 683.4769999999999 354.347Q689.0669999999999 326.4 717.0129999999999 320.8109999999999Q721.1089999999999 320.001 746.6669999999999 320.001H832Q857.557 320.001 861.653 320.8109999999999Q889.6 326.401 895.1890000000001 354.348Q895.999 358.444 895.999 384.001T895.1890000000001 413.654Q889.599 441.601 861.652 447.19Q857.557 448 832 448H746.667Q721.109 448 717.013 447.19Q689.067 441.6 683.4770000000001 413.653Q682.6670000000001 409.557 682.6670000000001 384z" />
    <glyph glyph-name="wallet-03"
      unicode="&#xE018;"
      horiz-adv-x="1024" d="M170.667 682.667Q170.667 640 213.333 640H810.6669999999999Q863.7009999999999 640 901.1629999999998 602.496Q938.667 565.0360000000001 938.667 512V85.3330000000001Q938.667 -42.6669999999999 810.6669999999999 -42.6669999999999H213.333Q85.333 -42.6669999999999 85.333 85.3330000000001V682.667Q85.333 810.667 213.333 810.667H725.333Q742.997 810.667 755.499 798.165Q768 785.665 768 768Q768 750.336 755.5 737.835Q742.997 725.333 725.333 725.333H213.333Q170.667 725.333 170.667 682.667zM170.667 558.977V85.333Q170.667 42.6669999999999 213.333 42.6669999999999H810.6669999999999Q853.3329999999999 42.6669999999999 853.3329999999999 85.3329999999999V512Q853.3329999999999 554.667 810.6669999999999 554.667H213.333Q189.823 554.667 170.667 558.9770000000001zM768 298.6660000000001Q768 234.6660000000001 704 234.6660000000001T640 298.6660000000001Q640 362.6660000000001 704 362.6660000000001T768 298.6660000000001z" />
    <glyph glyph-name="wallet-03-1"
      unicode="&#x77;&#x61;&#x6C;&#x6C;&#x65;&#x74;&#x5F;&#x30;&#x33;"
      horiz-adv-x="1024" d="M170.667 682.667Q170.667 640 213.333 640H810.6669999999999Q863.7009999999999 640 901.1629999999998 602.496Q938.667 565.0360000000001 938.667 512V85.3330000000001Q938.667 -42.6669999999999 810.6669999999999 -42.6669999999999H213.333Q85.333 -42.6669999999999 85.333 85.3330000000001V682.667Q85.333 810.667 213.333 810.667H725.333Q742.997 810.667 755.499 798.165Q768 785.665 768 768Q768 750.336 755.5 737.835Q742.997 725.333 725.333 725.333H213.333Q170.667 725.333 170.667 682.667zM170.667 558.977V85.333Q170.667 42.6669999999999 213.333 42.6669999999999H810.6669999999999Q853.3329999999999 42.6669999999999 853.3329999999999 85.3329999999999V512Q853.3329999999999 554.667 810.6669999999999 554.667H213.333Q189.823 554.667 170.667 558.9770000000001zM768 298.6660000000001Q768 234.6660000000001 704 234.6660000000001T640 298.6660000000001Q640 362.6660000000001 704 362.6660000000001T768 298.6660000000001z" />
    <glyph glyph-name="wallet-02"
      unicode="&#xE019;"
      horiz-adv-x="1024" d="M85.333 256V467.328Q85.333 522.155 92.715 542.933Q102.655 570.88 123.861 591.616Q139.649 607.0609999999999 189.441 630.016L567.893 804.693Q628.267 832.555 654.336 828.117Q689.963 822.059 710.4 792.235Q725.333 770.432 725.333 704V597.333H759.467Q841.387 597.333 868.779 583.381Q905.855 564.524 924.714 527.4459999999999Q938.666 500.054 938.666 418.134V136.5339999999999Q938.666 54.6139999999999 924.714 27.2219999999999Q905.854 -9.8110000000001 868.7779999999999 -28.7130000000002Q841.3849999999999 -42.6650000000002 759.4649999999999 -42.6650000000002H264.533Q182.613 -42.6650000000002 155.221 -28.7130000000002Q118.188 -9.8110000000001 99.286 27.2229999999998Q85.334 54.6159999999999 85.334 136.5359999999998V256zM170.667 418.1330000000001V136.533Q170.667 75.0930000000001 175.317 65.963Q181.632 53.6329999999999 193.963 47.317Q203.093 42.667 264.533 42.667H759.4670000000001Q820.9070000000002 42.667 830.037 47.317Q842.4110000000001 53.6320000000001 848.683 65.963Q853.333 75.093 853.333 136.5329999999999V418.1329999999999Q853.333 479.5729999999999 848.683 488.7029999999999Q842.411 501.0769999999999 830.037 507.3489999999999Q820.907 511.9989999999999 759.4670000000001 511.9989999999999H264.533Q203.093 511.9989999999999 193.963 507.3489999999999Q181.633 501.0759999999999 175.317 488.7029999999999Q170.667 479.5729999999999 170.667 418.1329999999999zM640 597.3330000000001V743.98L603.69 727.21L322.2600000000001 597.333H640zM768 277.3330000000001Q768 213.3330000000001 704 213.3330000000001T640 277.3330000000001Q640 303.8290000000001 658.73 322.6030000000001Q677.504 341.3330000000001 704 341.3330000000001Q730.496 341.3330000000001 749.27 322.6030000000001Q768 303.8300000000001 768 277.333z" />
    <glyph glyph-name="wallet-02-1"
      unicode="&#x77;&#x61;&#x6C;&#x6C;&#x65;&#x74;&#x5F;&#x30;&#x32;"
      horiz-adv-x="1024" d="M85.333 256V467.328Q85.333 522.155 92.715 542.933Q102.655 570.88 123.861 591.616Q139.649 607.0609999999999 189.441 630.016L567.893 804.693Q628.267 832.555 654.336 828.117Q689.963 822.059 710.4 792.235Q725.333 770.432 725.333 704V597.333H759.467Q841.387 597.333 868.779 583.381Q905.855 564.524 924.714 527.4459999999999Q938.666 500.054 938.666 418.134V136.5339999999999Q938.666 54.6139999999999 924.714 27.2219999999999Q905.854 -9.8110000000001 868.7779999999999 -28.7130000000002Q841.3849999999999 -42.6650000000002 759.4649999999999 -42.6650000000002H264.533Q182.613 -42.6650000000002 155.221 -28.7130000000002Q118.188 -9.8110000000001 99.286 27.2229999999998Q85.334 54.6159999999999 85.334 136.5359999999998V256zM170.667 418.1330000000001V136.533Q170.667 75.0930000000001 175.317 65.963Q181.632 53.6329999999999 193.963 47.317Q203.093 42.667 264.533 42.667H759.4670000000001Q820.9070000000002 42.667 830.037 47.317Q842.4110000000001 53.6320000000001 848.683 65.963Q853.333 75.093 853.333 136.5329999999999V418.1329999999999Q853.333 479.5729999999999 848.683 488.7029999999999Q842.411 501.0769999999999 830.037 507.3489999999999Q820.907 511.9989999999999 759.4670000000001 511.9989999999999H264.533Q203.093 511.9989999999999 193.963 507.3489999999999Q181.633 501.0759999999999 175.317 488.7029999999999Q170.667 479.5729999999999 170.667 418.1329999999999zM640 597.3330000000001V743.98L603.69 727.21L322.2600000000001 597.333H640zM768 277.3330000000001Q768 213.3330000000001 704 213.3330000000001T640 277.3330000000001Q640 303.8290000000001 658.73 322.6030000000001Q677.504 341.3330000000001 704 341.3330000000001Q730.496 341.3330000000001 749.27 322.6030000000001Q768 303.8300000000001 768 277.333z" />
    </font>
</defs>
</svg>
